Завантажити та скачати торренти українською


Ніна Матвієнко - Колекція (12 альбомів) (1995-2012) [FLAC] | Folk

Нові коментарі

Нова тема   Відповісти
Автор Повідомлення
gosha.samovar 
VIP


З нами з: 08.09.10
Востаннє: 06.12.16
Повідомлень: 400

2013-02-14 17:11  
Ніна Матвієнко - Колекція (12 альбомів) (1995-2012) [FLAC] | Folk



Стиль: Folk
Країна, місто: Україна, Київ
Пісні
Ніна Матвієнко
1995 - Золотослов (перевидання 2004 р.)




    01. Золотослов у виконанні Ніни Матвієнко та камерного хору "Хрещатик", композитор: Леся Дичко
Народні пісні у виконанні Ніни Матвієнко (без музичного супроводу):
    02. Що ж бо і це за село
    03. Їхав козак з України
    04. Ой ти, саде мій
    05. Ой кажуть люди
    06. Дозволь мені, мати...
    07. Матінко, матінко наша
    08. На нашу, хлопці...
    09. Петрівочка, ой щедрівочка
    10. На Івана Купайлого
    11. Ой Купало-Розкупало
    12. Розвивайся, сухий дубе...
    13. Ой тяжко-важко
    14. А сосонко літо і зиму зелено
    15. Що це в лісі стільки слуху
    16. Ой зажурилася...
    17. Світи, місяцю
    18. Ой беру я ягідки...
    19. Ой у саду соловейко...
    20. Ой там Семенко
    21. Ой стояла липка
    22. Щедрик, щедрик
EAC log
Exact Audio Copy V1.0 beta 3 from 29. August 2011

Отчёт EAC об извлечении, выполненном 17. января 2013, 0:33

Ніна Матвієнко / Золотослов

Дисковод: PHILIPS SPD2519T Adapter: 2 ID: 0

Режим чтения : Достоверность
Использование точного потока : Да
Отключение кэша аудио : Да
Использование указателей C2 : Нет

Коррекция смещения при чтении : 6
Способность читать области Lead-in и Lead-out : Нет
Заполнение пропущенных сэмплов тишиной : Да
Удаление блоков с тишиной в начале и конце : Нет
При вычислениях CRC использовались нулевые сэмплы : Да
Интерфейс : Встроенный Win32-интерфейс для Win NT/2000

Выходной формат : Пользовательский кодировщик
Выбранный битрейт : 1024 kBit/s
Качество : Высокий
Добавление ID3-тега : Нет
Утилита сжатия : D:\soft_2\EAC\Exact Audio Copy\Flac\flac.exe
Дополнительные параметры : -V -8 -T "Date=%year%" -T "Genre=%genre%" %source%

TOC извлечённого CD

Трек | Старт | Длительность | Начальный сектор | Конечный сектор
---------------------------------------------------------------------
1 | 0:00.00 | 10:00.49 | 0 | 45048
2 | 10:00.49 | 1:07.70 | 45049 | 50143
3 | 11:08.44 | 1:18.64 | 50144 | 56057
4 | 12:27.33 | 6:33.41 | 56058 | 85573
5 | 19:00.74 | 4:12.48 | 85574 | 104521
6 | 23:13.47 | 1:36.56 | 104522 | 111777
7 | 24:50.28 | 2:02.13 | 111778 | 120940
8 | 26:52.41 | 1:12.43 | 120941 | 126383
9 | 28:05.09 | 3:06.58 | 126384 | 140391
10 | 31:11.67 | 1:32.42 | 140392 | 147333
11 | 32:44.34 | 1:51.12 | 147334 | 155670
12 | 34:35.46 | 3:04.59 | 155671 | 169529
13 | 37:40.30 | 3:14.33 | 169530 | 184112
14 | 40:54.63 | 2:43.30 | 184113 | 196367
15 | 43:38.18 | 2:06.59 | 196368 | 205876
16 | 45:45.02 | 4:50.73 | 205877 | 227699
17 | 50:36.00 | 0:46.09 | 227700 | 231158
18 | 51:22.09 | 2:13.03 | 231159 | 241136
19 | 53:35.12 | 2:27.26 | 241137 | 252187
20 | 56:02.38 | 1:08.17 | 252188 | 257304
21 | 57:10.55 | 3:06.00 | 257305 | 271254
22 | 60:16.55 | 2:23.36 | 271255 | 282015

Характеристики диапазона извлечения и сообщения об ошибках

Выбранный диапазон

Имя файла N:\Роздачі\Ніна Матвієнко\1995 - Золотослов\Ніна Матвієнко - Золотослов.wav

Пиковый уровень 100.0 %
Скорость извлечения 3.0 X
Качество диапазона 99.9 %
CRC теста 0654B931
CRC копии 0654B931
Копирование... OK

Ошибок не произошло

Конец отчёта

==== Контрольная сумма отчёта 5D60BD4F0B44F60237EF375A3EBCFF1F69F9F42892E3701782844BA054A9B633 ====
Спектр
Виконавці:
    Ніна Матвієнко
    Лауреат міжнародних конкурсів - камерний хор "Хрещатик". Художній керівник та деригент хору Лариса Бухонська


Тривалість: 01:02:40
Мова: українська
Аудіо-кодек: FLAC
Бітрейт: 614 кб/с
Видавець: Ukrmusic
1997 - І серце одпочине (перевидання 2004)




    01. Камерна Симфонія (муз.: Олег Ківа)
    02. Тихо, тихо Дунай воду несе (муз.: Олег Ківа, обробка української народної пісні)
    03. Камерна кантата № 3 (муз.: Олег Ківа)
    04-06. Три Весільні пісні (муз.: Мирослав Скорик, обробка українських народних пісень)
    07. Ой, у полі вітер віє (муз.: Володимир Зубицький, слова: Василь Довжик)
    08. Колисала я, колисала я дитиноньку маленьку
    09. Ой, глибокий колодязю (муз.: Євген Станкович, обробка української народної пісні)
EAC log
Exact Audio Copy V1.0 beta 3 from 29. August 2011

Отчёт EAC об извлечении, выполненном 9. декабря 2012, 13:50

Ніна Матвієнко / І серце одпочине

Дисковод: PHILIPS SPD2519T Adapter: 0 ID: 0

Режим чтения : Достоверность
Использование точного потока : Да
Отключение кэша аудио : Да
Использование указателей C2 : Нет

Коррекция смещения при чтении : 6
Способность читать области Lead-in и Lead-out : Нет
Заполнение пропущенных сэмплов тишиной : Да
Удаление блоков с тишиной в начале и конце : Нет
При вычислениях CRC использовались нулевые сэмплы : Да
Интерфейс : Встроенный Win32-интерфейс для Win NT/2000

Выходной формат : Пользовательский кодировщик
Выбранный битрейт : 1024 kBit/s
Качество : Высокий
Добавление ID3-тега : Нет
Утилита сжатия : D:\soft_2\EAC\Exact Audio Copy\Flac\flac.exe
Дополнительные параметры : -V -8 -T "Date=%year%" -T "Genre=%genre%" %source%

TOC извлечённого CD

Трек | Старт | Длительность | Начальный сектор | Конечный сектор
---------------------------------------------------------------------
1 | 0:00.00 | 16:32.70 | 0 | 74469
2 | 16:32.70 | 4:13.39 | 74470 | 93483
3 | 20:46.34 | 13:11.53 | 93484 | 152861
4 | 33:58.12 | 4:06.24 | 152862 | 171335
5 | 38:04.36 | 1:55.67 | 171336 | 180027
6 | 40:00.28 | 4:39.29 | 180028 | 200981
7 | 44:39.57 | 5:36.60 | 200982 | 226241
8 | 50:16.42 | 3:12.35 | 226242 | 240676
9 | 53:29.02 | 5:49.28 | 240677 | 266879

Характеристики диапазона извлечения и сообщения об ошибках

Выбранный диапазон

Имя файла N:\Роздачі\Ніна Матвієнко\1997 - І серце одпочине\Ніна Матвієнко - І серце одпочине.wav

Пиковый уровень 100.0 %
Скорость извлечения 7.1 X
Качество диапазона 99.9 %
CRC теста 8DD6E1E4
CRC копии 8DD6E1E4
Копирование... OK

Ошибок не произошло

Конец отчёта

==== Контрольная сумма отчёта 5990E8760B846B3A5449683E773B071363F068A1147ABB381E54B16E8AFA3321 ====
Спектр
Виконавці:
    Ніна Матвієнко
    Лауреат Державної премії ім. Миколи Лисенка Державний ансамбль солістів "Київська камерата" та диригент - Лауреат Національної премії України ім. Тараса Шевченка Володимир Сіренко
    Художній керівник - заслужений діяч мистецтв України Валерій Матюхін


Тривалість: 00:59:18
Мова: українська
Аудіо-кодек: FLAC
Бітрейт: 589 кб/с
Видавець: Ukrmusic
2003 - Золотий камінь посіємо (2 CD)




    Частина 1
      СТВОРЕННЯ СВІТУ
      01. Створення світу "Коли не було з нащада світу" - коляда.

      ВЕСНА СВІТУ
      02. "Ой, ти, соловейку" - обробка української народної пісні.
      03. Весняні забави ("Зайчику", "Ой на горі льон") - обробка українських народних пісень.
      04. Русальна - обробка української народної пісні.
      05. "Орел поле поорав" - обробка української народної пісні.

      РУСЬ ПРАДАВНЯ
      06. Заклинання, Жертвоприношення - музичний епізод. Текст С. Майданської.
      07. "Сьогодні Івана" - обробка української народної пісні.
      08. "Купалочка" - обробка української народної пісні.
      09. "Засвічу свічку" - обробка української народної пісні.
      10. "Ой, до бору стежечка" - обробка української народної пісні.
      11. "Що Петрівочки дві неділечки" - обробка української народної пісні.

      КНЯЖА ДОБА
      12. Слава Стольному Києву - музичний епізод.
      13. "Нова радость нам явилась" - обробка колядки.
      14. "Гой, питалася княжа корона" - колядка.
      15. "У нашого пана" - обробка щедрівки.
      16. Орда - музичний епізод. Текст із "Слова о полку Ігоревім".
      17. Плач-колискова - обробка української народної пісні.
    EAC log
    Exact Audio Copy V1.0 beta 3 from 29. August 2011

    Отчёт EAC об извлечении, выполненном 9. февраля 2013, 14:33

    Ніна Матвієнко / Золотий камінь посіємо (Частина 1)

    Дисковод: HL-DT-STDVD-RAM GSA-H58N Adapter: 0 ID: 0

    Режим чтения : Достоверность
    Использование точного потока : Да
    Отключение кэша аудио : Да
    Использование указателей C2 : Нет

    Коррекция смещения при чтении : 102
    Способность читать области Lead-in и Lead-out : Нет
    Заполнение пропущенных сэмплов тишиной : Да
    Удаление блоков с тишиной в начале и конце : Нет
    При вычислениях CRC использовались нулевые сэмплы : Да
    Интерфейс : Встроенный Win32-интерфейс для Win NT/2000

    Выходной формат : Пользовательский кодировщик
    Выбранный битрейт : 1024 kBit/s
    Качество : Высокий
    Добавление ID3-тега : Нет
    Утилита сжатия : D:\soft_2\EAC\Exact Audio Copy\Flac\flac.exe
    Дополнительные параметры : -V -8 -T "Date=%year%" -T "Genre=%genre%" %source%

    TOC извлечённого CD

    Трек | Старт | Длительность | Начальный сектор | Конечный сектор
    ---------------------------------------------------------------------
    1 | 0:01.40 | 5:44.05 | 115 | 25919
    2 | 5:45.45 | 3:39.62 | 25920 | 42406
    3 | 9:25.32 | 2:49.13 | 42407 | 55094
    4 | 12:14.45 | 2:31.02 | 55095 | 66421
    5 | 14:45.47 | 4:48.15 | 66422 | 88036
    6 | 19:33.62 | 5:21.50 | 88037 | 112161
    7 | 24:55.37 | 3:51.43 | 112162 | 129529
    8 | 28:47.05 | 2:12.65 | 129530 | 139494
    9 | 30:59.70 | 2:30.12 | 139495 | 150756
    10 | 33:30.07 | 3:34.33 | 150757 | 166839
    11 | 37:04.40 | 4:53.57 | 166840 | 188871
    12 | 41:58.22 | 3:41.43 | 188872 | 205489
    13 | 45:39.65 | 1:33.30 | 205490 | 212494
    14 | 47:13.20 | 1:36.62 | 212495 | 219756
    15 | 48:50.07 | 4:17.00 | 219757 | 239031
    16 | 53:07.07 | 5:43.13 | 239032 | 264769
    17 | 58:50.20 | 2:26.05 | 264770 | 275724

    Характеристики диапазона извлечения и сообщения об ошибках

    Выбранный диапазон

    Имя файла N:\Роздачі\Ніна Матвієнко\Ніна Матвієнко\2003 - Золотий камінь посіємо (2 CD)\Частина 1\Ніна Матвієнко - Золотий камінь посіємо (Частина 1).wav

    Пиковый уровень 87.0 %
    Скорость извлечения 2.5 X
    Качество диапазона 99.9 %
    CRC теста E50246ED
    CRC копии E50246ED
    Копирование... OK

    Ошибок не произошло

    Конец отчёта

    ==== Контрольная сумма отчёта 0C7C50868B17EDAB5BCD75F93739E39CFCBFF2B511921412A0B28680D086A1CD ====
    Спектр
    Тривалість: 01:01:15
    Мова: українська
    Аудіо-кодек: FLAC
    Бітрейт: 571 кб/с
    Частина 2
      КОЗАЦЬКА ДЕРЖАВА
      01. "Господи, силою Твоєю" (композитор Дм. Бортнянський).
      02. "Мати милосердна" (автор Д. Туптало), обробка старовинного канта.
      03. "Днесь пора і той час" Твори з рукописної збірки XVII ст.
      04. "Щиголь тугу має" - обробка старовинного канта.
      05. "А у полі річка" - кант в обробці К. Чечені.
      06. "Стоїть явір над горою" - Г. Сковорода, кант в обробці К. Чечені.
      07. Танець в обробці М. Ділецького (бл. 1630-1690).
      08. Орда - музичний епізод.
      09. "Ой, горе тій чайці" - обробка української народної пісні.
      10. "Ой, полети, галко" - народна пісня, виконує Т. Силенко.

      ВВІЙДИ І ТИ У ЦЕЙ СОБОР
      11. "Камерна кантата 3, на вірші П. Тичини" - О. Ківа (На вступі текст С. Майданської).
      12. "Шуміла ліщина" - народна пісня в обробці М. Скорика.
      13. "Глибокий колодязю" - Є. Станкович.
      14. "Світи, місяцю, не вечорися". Текст із записів Лесі Українки.
      15. "Горілиць лежить моє село". Текст С. Майданської.
      16. Фінал. "Ввійди і ти у цей собор" на вірші С. Майданської.
    EAC log
    Exact Audio Copy V1.0 beta 3 from 29. August 2011

    Отчёт EAC об извлечении, выполненном 9. февраля 2013, 16:30

    Ніна Матвієнко / Золотий камінь посіємо (Частина 2)

    Дисковод: HL-DT-STDVD-RAM GSA-H58N Adapter: 0 ID: 0

    Режим чтения : Достоверность
    Использование точного потока : Да
    Отключение кэша аудио : Да
    Использование указателей C2 : Нет

    Коррекция смещения при чтении : 102
    Способность читать области Lead-in и Lead-out : Нет
    Заполнение пропущенных сэмплов тишиной : Да
    Удаление блоков с тишиной в начале и конце : Нет
    При вычислениях CRC использовались нулевые сэмплы : Да
    Интерфейс : Встроенный Win32-интерфейс для Win NT/2000

    Выходной формат : Пользовательский кодировщик
    Выбранный битрейт : 1024 kBit/s
    Качество : Высокий
    Добавление ID3-тега : Нет
    Утилита сжатия : D:\soft_2\EAC\Exact Audio Copy\Flac\flac.exe
    Дополнительные параметры : -V -8 -T "Date=%year%" -T "Genre=%genre%" %source%

    TOC извлечённого CD

    Трек | Старт | Длительность | Начальный сектор | Конечный сектор
    ---------------------------------------------------------------------
    1 | 0:01.40 | 1:31.70 | 115 | 7009
    2 | 1:33.35 | 3:57.70 | 7010 | 24854
    3 | 5:31.30 | 1:45.17 | 24855 | 32746
    4 | 7:16.47 | 1:59.33 | 32747 | 41704
    5 | 9:16.05 | 2:36.17 | 41705 | 53421
    6 | 11:52.22 | 3:04.13 | 53422 | 67234
    7 | 14:56.35 | 1:15.70 | 67235 | 72929
    8 | 16:12.30 | 0:55.05 | 72930 | 77059
    9 | 17:07.35 | 4:02.15 | 77060 | 95224
    10 | 21:09.50 | 4:29.70 | 95225 | 115469
    11 | 25:39.45 | 11:13.40 | 115470 | 165984
    12 | 36:53.10 | 1:39.07 | 165985 | 173416
    13 | 38:32.17 | 5:15.25 | 173417 | 197066
    14 | 43:47.42 | 0:41.40 | 197067 | 200181
    15 | 44:29.07 | 0:27.30 | 200182 | 202236
    16 | 44:56.37 | 8:30.05 | 202237 | 240491

    Характеристики диапазона извлечения и сообщения об ошибках

    Выбранный диапазон

    Имя файла N:\Роздачі\Ніна Матвієнко\Ніна Матвієнко\2003 - Золотий камінь посіємо (2 CD)\Частина 2\Ніна Матвієнко - Золотий камінь посіємо (Частина 2).wav

    Пиковый уровень 86.7 %
    Скорость извлечения 2.5 X
    Качество диапазона 99.9 %
    CRC теста 9B49750A
    CRC копии 9B49750A
    Копирование... OK

    Ошибок не произошло

    Конец отчёта

    ==== Контрольная сумма отчёта FAD3EE907D7128E7A573595654CAD1EE76DB31BE65E1221624C5453312373E87 ====
    Спектр
    Тривалість: 00:53:25
    Мова: українська
    Аудіо-кодек: FLAC
    Бітрейт: 544 кб/с
    Виконавці:
      Ніна Матвієнко;
      Софія Майданська - автор естетичної концепції і лібрето;
      Ганна Гаврилець - композитор;
      Камерний симфонічний оркестр (диригент - заслужений діяч мистецтв Володимир Сіренко);
      Хорова капела хлопчиків і мужчин "ДУДАРИК" (художній керівник, диригент - Микола Кацал);
      Ансамбль давньої музики (художній керівник - Костянтин Чеченя);
      Тарас Силенко - кобза;
      Анатолій Карпенко - синтезатор.

    Видавець: Темпора
2004 - Найкраще




    01. Oй, роду наш красний - українська народна пісня
    02. Висока верба - українська народна пісня
    03. Дикі гуси - Ігор Поклад, сл. Юрія Рибчинського
    04. Ой, ти, зозулько рябейкая - українська народна пісня
    05. Сизокрилий голубоньку - українська народна пісня
    06. Не метелиця лугом стелиться - Владислав Толмачов, сл. Бориса Списаренка
    07. Ой, глибокий колодязю - українська народна пісня
    08. Ішла дівча лучками - українська народна пісня
    09. Чарівна скрипка - Ігор Поклад, сл. Юрія Рибчинського
    10. Ой, де ж це ти, подруженько - українська народна пісня
    11. Ой, горе тій чайці - українська народна пісня в обробці Ганни Гаврилець
    12. У місяці іюні - українська народна пісня
    13. Ой, Боже, Боже, що я роблю - українська народна пісня
    14. Як я люблю тебе - Ігор Поклад, сл. Дмитра Луценка
    15. Кажуть мені люди - українська народна пісня
    16. Віночок українських народних пісень - записано від матері, Антоніни Матвієнко
    17. Пісня про матір - Ігор Поклад, сл. Бориса Олійника
    18. Прилетіла перепілонька - українська народна пісня
    19. Чорна рілля ізорена, Орел поле поорав - українська народна пісня
    20. Наливаймо, браття - Віктор Лісовол, сл. Вадима Крищенка
    21. Сік землі - Владислав Толмачов, сл. Володимира Вихруща
    22. Колискова зорі - Шрина Кириліна, сл. Миколи Сингаївського
    23. Сміються, плачуть солов'ї - музика народна, сл. Олександра Олеся
    24. Ви не йдіть, літа молоді - Вадим Смогитель (музика і слова)
    25. Бувайте здорові - українська народна пісня
EAC log
Exact Audio Copy V1.0 beta 3 from 29. August 2011

Отчёт EAC об извлечении, выполненном 2. февраля 2013, 15:10

Ніна Матвієнко / Найкраще

Дисковод: HL-DT-STDVD-RAM GSA-H58N Adapter: 0 ID: 0

Режим чтения : Достоверность
Использование точного потока : Да
Отключение кэша аудио : Да
Использование указателей C2 : Нет

Коррекция смещения при чтении : 102
Способность читать области Lead-in и Lead-out : Нет
Заполнение пропущенных сэмплов тишиной : Да
Удаление блоков с тишиной в начале и конце : Нет
При вычислениях CRC использовались нулевые сэмплы : Да
Интерфейс : Встроенный Win32-интерфейс для Win NT/2000

Выходной формат : Пользовательский кодировщик
Выбранный битрейт : 1024 kBit/s
Качество : Высокий
Добавление ID3-тега : Нет
Утилита сжатия : D:\soft_2\EAC\Exact Audio Copy\Flac\flac.exe
Дополнительные параметры : -V -8 -T "Date=%year%" -T "Genre=%genre%" %source%

TOC извлечённого CD

Трек | Старт | Длительность | Начальный сектор | Конечный сектор
---------------------------------------------------------------------
1 | 0:00.00 | 2:01.55 | 0 | 9129
2 | 2:01.55 | 3:26.67 | 9130 | 24646
3 | 5:28.47 | 3:55.06 | 24647 | 42277
4 | 9:23.53 | 1:17.09 | 42278 | 48061
5 | 10:40.62 | 2:21.66 | 48062 | 58702
6 | 13:02.53 | 4:10.10 | 58703 | 77462
7 | 17:12.63 | 3:08.04 | 77463 | 91566
8 | 20:20.67 | 2:32.72 | 91567 | 103038
9 | 22:53.64 | 3:58.07 | 103039 | 120895
10 | 26:51.71 | 0:59.15 | 120896 | 125335
11 | 27:51.11 | 4:03.32 | 125336 | 143592
12 | 31:54.43 | 2:04.44 | 143593 | 152936
13 | 33:59.12 | 2:43.56 | 152937 | 165217
14 | 36:42.68 | 4:15.47 | 165218 | 184389
15 | 40:58.40 | 2:23.14 | 184390 | 195128
16 | 43:21.54 | 5:32.65 | 195129 | 220093
17 | 48:54.44 | 3:15.02 | 220094 | 234720
18 | 52:09.46 | 2:10.18 | 234721 | 244488
19 | 54:19.64 | 3:12.33 | 244489 | 258921
20 | 57:32.22 | 2:21.40 | 258922 | 269536
21 | 59:53.62 | 4:05.31 | 269537 | 287942
22 | 63:59.18 | 3:24.47 | 287943 | 303289
23 | 67:23.65 | 5:04.26 | 303290 | 326115
24 | 72:28.16 | 3:19.12 | 326116 | 341052
25 | 75:47.28 | 2:05.02 | 341053 | 350429

Характеристики диапазона извлечения и сообщения об ошибках

Выбранный диапазон

Имя файла N:\Роздачі\Ніна Матвієнко\Нна Матвієнко\2004 - Найкраще\Ніна Матвієнко - Найкраще.wav

Пиковый уровень 100.0 %
Скорость извлечения 3.2 X
Качество диапазона 100.0 %
CRC теста B37C81B1
CRC копии B37C81B1
Копирование... OK

Ошибок не произошло

Конец отчёта

==== Контрольная сумма отчёта 13565C22884E714549130C1223EB158AF97DCEBF21E272E14321D90EEA9AD6DA ====
Спектр
Виконавці:
    Ніна Матвієнко
    Оркестр народних інструментів Українського радіо (6, 8)
    Естрадно-симфонічний оркестр Українського радіо (9, 14, 17, 21, 22)
    Камерний оркестр Українського радіо (11)
    Оркестр народних інструментів хору ім. Г. Верьовки (2, 16)
    Ансамбль "Мрія" (3)
    Тріо "Золоті ключі" (5, 12)
    В. Смогитель - спів, Д. Попічук - цимбали (19)
    Інструментальний ансамбль під керуванням В. Смогителя (20, 23, 24)

Тривалість: 01:17:52
Мова: українська
Аудіо-кодек: FLAC
Бітрейт: 631 кб/с
Видавець: Астра
2006 - З маминих долонь




    01. Вступне слово Ніни Матвієнко
    02. "Ой, ходить сон" - українська народна пісня
    03. "Колискова" - Платон Майборода, слова Андрія Малишка
    04. "Колискова маленькому киянину" - Олександр Білаш, слова Бориса Олійника
    05. "Колискова" - українська народна пісня
    06. Віночок українських народних пісень (записано від матері, Антоніни Матвієнко)
    07. "Ой, горе тій чайці" - українська народна пісня, слова Івана Мазепи
    08. "Ой, ти, зозулько рябейкая" - українська народна пісня
    09. "Ой, у лузі при лужку" - українська народна пісня
    10. "Летіла зозуля" - українська народна пісня
    11. "Прилетіла перепілонька" - українська народна пісня
    12. "Котику сіренький" - українська народна пісня
    13. "Колискова" - українська народна пісня
    14. "Колисанка" - Галина Менкуш, слова Володимира Іванишина
    15. "Колискова" - "Місяць ясненький" - Анатолій Авдієвський, слова Лесі Українки
    16. "Веснянка" - музика і слова Ніни Матвієнко
    17. "Ой, мамуню, умираю" - українська народна пісня
    18. "Коло млина калина" - українська народна пісня
    19. "Ой, брате мій, орле" - українська народна пісня
    20. "Колискова зорі" - Ірина Кириліна, слова Миколи Сингаївського
    21. "Пісня про матір" - Ігор Поклад, слова Бориса Олійника
EAC log
Exact Audio Copy V1.0 beta 3 from 29. August 2011

Отчёт EAC об извлечении, выполненном 3. января 2015, 11:47

Ніна Матвієнко / З маминих долонь

Дисковод: PHILIPS SPD2519T Adapter: 2 ID: 0

Режим чтения : Достоверность
Использование точного потока : Да
Отключение кэша аудио : Да
Использование указателей C2 : Нет

Коррекция смещения при чтении : 6
Способность читать области Lead-in и Lead-out : Нет
Заполнение пропущенных сэмплов тишиной : Да
Удаление блоков с тишиной в начале и конце : Нет
При вычислениях CRC использовались нулевые сэмплы : Да
Интерфейс : Встроенный Win32-интерфейс для Win NT/2000

Выходной формат : Пользовательский кодировщик
Выбранный битрейт : 1024 kBit/s
Качество : Высокий
Добавление ID3-тега : Нет
Утилита сжатия : D:\soft_2\EAC\Exact Audio Copy\Flac\flac.exe
Дополнительные параметры : -V -8 -T "Date=%year%" -T "Genre=%genre%" %source%

TOC извлечённого CD

Трек | Старт | Длительность | Начальный сектор | Конечный сектор
---------------------------------------------------------------------
1 | 0:00.00 | 2:57.05 | 0 | 13279
2 | 2:57.05 | 1:28.11 | 13280 | 19890
3 | 4:25.16 | 3:21.05 | 19891 | 34970
4 | 7:46.21 | 4:24.01 | 34971 | 54771
5 | 12:10.22 | 3:46.03 | 54772 | 71724
6 | 15:56.25 | 5:34.65 | 71725 | 96839
7 | 21:31.15 | 2:04.07 | 96840 | 106146
8 | 23:35.22 | 1:16.59 | 106147 | 111905
9 | 24:52.06 | 2:25.02 | 111906 | 122782
10 | 27:17.08 | 3:30.06 | 122783 | 138538
11 | 30:47.14 | 2:10.01 | 138539 | 148289
12 | 32:57.15 | 3:10.02 | 148290 | 162541
13 | 36:07.17 | 3:33.00 | 162542 | 178516
14 | 39:40.17 | 3:29.01 | 178517 | 194192
15 | 43:09.18 | 4:05.42 | 194193 | 212609
16 | 47:14.60 | 1:27.00 | 212610 | 219134
17 | 48:41.60 | 1:07.60 | 219135 | 224219
18 | 49:49.45 | 1:18.02 | 224220 | 230071
19 | 51:07.47 | 3:52.05 | 230072 | 247476
20 | 54:59.52 | 3:26.09 | 247477 | 262935
21 | 58:25.61 | 3:13.04 | 262936 | 277414

Характеристики диапазона извлечения и сообщения об ошибках

Выбранный диапазон

Имя файла N:\Роздачі\Ніна Матвієнко\Ніна Матвієнко [FLAC]\Ніна Матвієнко\2006 - З маминих долонь\Ніна Матвієнко - З маминих долонь.wav

Пиковый уровень 100.0 %
Скорость извлечения 2.3 X
Качество диапазона 100.0 %
CRC теста 940AAF96
CRC копии 940AAF96
Копирование... OK

Ошибок не произошло

AccurateRip: сводка

Трек 1 отсутствует в базе данных
Трек 2 отсутствует в базе данных
Трек 3 отсутствует в базе данных
Трек 4 отсутствует в базе данных
Трек 5 отсутствует в базе данных
Трек 6 отсутствует в базе данных
Трек 7 отсутствует в базе данных
Трек 8 отсутствует в базе данных
Трек 9 отсутствует в базе данных
Трек 10 отсутствует в базе данных
Трек 11 отсутствует в базе данных
Трек 12 отсутствует в базе данных
Трек 13 отсутствует в базе данных
Трек 14 отсутствует в базе данных
Трек 15 отсутствует в базе данных
Трек 16 отсутствует в базе данных
Трек 17 отсутствует в базе данных
Трек 18 отсутствует в базе данных
Трек 19 отсутствует в базе данных
Трек 20 отсутствует в базе данных
Трек 21 отсутствует в базе данных

Ни одного трека нет в базе AccurateRip

Конец отчёта

==== Контрольная сумма отчёта 6B3DF7C870023E9AC53065A49A859FE968216832627A6502A75ACAF6855D1239 ====
Спектр
Виконавці:
    Ніна Матвієнко
    Симфонічний оркестр Українського радіо - 4
    хорова капела "Дударик", інструментальний ансамбль п/к Миколи Кацала - 3, 12, 14
    Заслужений академічний Український народний хор ім. Г. Верьовки - 5, 15
    Камерний ансамбль "Київська камерата" - 13
    Тріо "Золоті ключі" - 17, 18
    Естрадно-симфонічний оркестр Українського радіо - 20, 21
    Інструментальний ансамбль під керуванням В. Смогителя - 19

Тривалість: 01:01:39
Мова: українська
Аудіо-кодек: FLAC
Бітрейт: 579 кб/с
Видавець: Lavina
2006 - Колискова зорі




    01. Колискова зорі
    02. Ой давно-давно
    03. Ой була в мене мати-мачуха
    04. В мене батько як цвіт
    05. Оддала мене матінка
    06. Була бідна вдова
    07. Ой пила я із синами
    08. Зажурилася вдова
    09. Ой у полі, полі буйному
    10. Ой ходить сон коло вікон
    11. Ходить журавель по ріллі
    12. Соловейку, синку
    13. Ой під лісом, під Самбуром
    14. Матінко моя, де ти, доля
    15. Приїхала пошта
    16. Ішла вдова долиною
EAC log
Exact Audio Copy V1.0 beta 3 from 29. August 2011

Отчёт EAC об извлечении, выполненном 9. декабря 2012, 13:07

Ніна Матвієнко / Колискова зорі

Дисковод: PHILIPS SPD2519T Adapter: 0 ID: 0

Режим чтения : Достоверность
Использование точного потока : Да
Отключение кэша аудио : Да
Использование указателей C2 : Нет

Коррекция смещения при чтении : 6
Способность читать области Lead-in и Lead-out : Нет
Заполнение пропущенных сэмплов тишиной : Да
Удаление блоков с тишиной в начале и конце : Нет
При вычислениях CRC использовались нулевые сэмплы : Да
Интерфейс : Встроенный Win32-интерфейс для Win NT/2000

Выходной формат : Пользовательский кодировщик
Выбранный битрейт : 1024 kBit/s
Качество : Высокий
Добавление ID3-тега : Нет
Утилита сжатия : D:\soft_2\EAC\Exact Audio Copy\Flac\flac.exe
Дополнительные параметры : -V -8 -T "Date=%year%" -T "Genre=%genre%" %source%

TOC извлечённого CD

Трек | Старт | Длительность | Начальный сектор | Конечный сектор
---------------------------------------------------------------------
1 | 0:00.01 | 3:19.24 | 1 | 14949
2 | 3:19.25 | 2:47.42 | 14950 | 27516
3 | 6:06.67 | 2:45.38 | 27517 | 39929
4 | 8:52.30 | 3:08.64 | 39930 | 54093
5 | 12:01.19 | 0:59.48 | 54094 | 58566
6 | 13:00.67 | 4:04.04 | 58567 | 76870
7 | 17:04.71 | 3:27.58 | 76871 | 92453
8 | 20:32.54 | 3:54.16 | 92454 | 110019
9 | 24:26.70 | 5:01.21 | 110020 | 132615
10 | 29:28.16 | 1:25.58 | 132616 | 139048
11 | 30:53.74 | 5:03.38 | 139049 | 161811
12 | 35:57.37 | 1:13.50 | 161812 | 167336
13 | 37:11.12 | 2:20.62 | 167337 | 177898
14 | 39:31.74 | 2:02.57 | 177899 | 187105
15 | 41:34.56 | 2:06.52 | 187106 | 196607
16 | 43:41.33 | 2:45.30 | 196608 | 209012

Характеристики диапазона извлечения и сообщения об ошибках

Выбранный диапазон

Имя файла N:\Роздачі\Ніна Матвієнко\2006 - Колискова зорі\Ніна Матвієнко - Колискова зорі.wav

Пиковый уровень 99.3 %
Скорость извлечения 2.2 X
Качество диапазона 99.9 %
CRC теста 0FE8DC68
CRC копии 0FE8DC68
Копирование... OK

Ошибок не произошло

Конец отчёта

==== Контрольная сумма отчёта 07F33872495A269093672A1F6C5CF47DFDE9CBB62A5600C3FB1411222273BF87 ====
Спектр
Тривалість: 00:46:27
Мова: українська
Аудіо-кодек: FLAC
Бітрейт: 580 кб/с
Видавець: Taras Bulba entertainment
2006 - Молитва




    01. Молитва
    02. Ой чиє ж то поле
    03. Сизокрилий голубоньку
    04. Ой піду я до Кийова
    05. Через наше сельце
    06. Веду русалку
    07. Ой вийду я на вулицю
    08. Журавлики одлетіли
    09. На жовтенькому пісочку
    10. Рано-рано говорила яблунька
    11. Ой спи, дитя
    12. Ой як прилітали та й два соколонька
    13. Ой там Семенко
    14. Щедрик-щедрик, щедрівочка
    15. Із-за гори
EAC log
Exact Audio Copy V1.0 beta 3 from 29. August 2011

Отчёт EAC об извлечении, выполненном 15. января 2013, 0:05

Ніна Матвієнко / Молитва

Дисковод: PHILIPS SPD2519T Adapter: 2 ID: 0

Режим чтения : Достоверность
Использование точного потока : Да
Отключение кэша аудио : Да
Использование указателей C2 : Нет

Коррекция смещения при чтении : 6
Способность читать области Lead-in и Lead-out : Нет
Заполнение пропущенных сэмплов тишиной : Да
Удаление блоков с тишиной в начале и конце : Нет
При вычислениях CRC использовались нулевые сэмплы : Да
Интерфейс : Встроенный Win32-интерфейс для Win NT/2000

Выходной формат : Пользовательский кодировщик
Выбранный битрейт : 1024 kBit/s
Качество : Высокий
Добавление ID3-тега : Нет
Утилита сжатия : D:\soft_2\EAC\Exact Audio Copy\Flac\flac.exe
Дополнительные параметры : -V -8 -T "Date=%year%" -T "Genre=%genre%" %source%

TOC извлечённого CD

Трек | Старт | Длительность | Начальный сектор | Конечный сектор
---------------------------------------------------------------------
1 | 0:00.01 | 11:19.18 | 1 | 50943
2 | 11:19.19 | 3:16.12 | 50944 | 65655
3 | 14:35.31 | 3:32.38 | 65656 | 81593
4 | 18:07.69 | 2:47.30 | 81594 | 94148
5 | 20:55.24 | 2:41.41 | 94149 | 106264
6 | 23:36.65 | 1:42.54 | 106265 | 113968
7 | 25:19.44 | 1:15.05 | 113969 | 119598
8 | 26:34.49 | 3:46.60 | 119599 | 136608
9 | 30:21.34 | 2:53.51 | 136609 | 149634
10 | 33:15.10 | 2:24.16 | 149635 | 160450
11 | 35:39.26 | 0:41.51 | 160451 | 163576
12 | 36:21.02 | 2:10.58 | 163577 | 173384
13 | 38:31.60 | 1:11.33 | 173385 | 178742
14 | 39:43.18 | 2:27.06 | 178743 | 189773
15 | 42:10.24 | 3:49.10 | 189774 | 206958

Характеристики диапазона извлечения и сообщения об ошибках

Выбранный диапазон

Имя файла N:\Роздачі\Ніна Матвієнко\2006 - Молитва\Ніна Матвієнко - Молитва.wav

Пиковый уровень 100.0 %
Скорость извлечения 2.2 X
Качество диапазона 100.0 %
CRC теста F48CD0FA
CRC копии F48CD0FA
Копирование... OK

Ошибок не произошло

Конец отчёта

==== Контрольная сумма отчёта D9DE1004BA98372BCE0E786A8B2C15557F137AE8A9209418E23AA98F653A1E10 ====
Спектр
Тривалість: 00:45:59
Мова: українська
Аудіо-кодек: FLAC
Бітрейт: 599 кб/с
Видавець: Taras Bulba entertainment
2009 - Осінь, така мила




    01. "Лісова пісня". Музика до радіовистави (фрагм.) - Євген Станкович, Ніна Матвієнко, симфонічний оркестр Українського радіо, диригент Володимир Сіренко, запис 1992 року
    02. "Тернова ружа" - Галина Менкуш, Слова Володимира Іващенка, Тріо "Золоті Ключі" (без супроводу), запис 1970 року
    03. "Не сходило вранці сонечко" - Вячеслав Криштофович, слова Миколи Костомарова, Ніна Матвієнко, ВІА "Березень" під керуванням Олександра Авагяна, запис 1970 року
    04. "Либідь" - Олександр Авагян, слова Олексія Булиги, Ніна Матвієнко, ВІА "Березень" під керуванням Олександра Авагяна, запис 1970 року
    05. "Лелеченьки" - Олександр Білаш, слова Дмитра Павличка, Ніна Матвієнко, жіночий склад Українського народного хору ім. Г. Верьовки, диригент Анатолій Авдієвський (без супроводу), запис 1967 року

    Камерна кантата №3 - Олег Кива, слова Павла Тичини, Ніна Матвієнко, камерно-інструментальний ансамбль Спілки композиторів України, диригент Федір Глущенко, запис 1983 року
    06. 1 ч. "Осінь"
    07. 2 ч. "Одчиняйте двері"
    08. 3 ч. "Той сад"

    09. "Ой, брате мій, орле" (Дитяча гра із записів Явдохи Зуїхи), українська народна пісня, обробка Вадима Смогителя, Ніна Матвієнко, інструментальний ансамбль під керуванням Вадима Смогителя, запис 1988 року
    10. "Ой, спи, дитя" - українська народна пісня, обробка Івана Білозіра, Ніна Матвієнко, народна самодіяльна хорова капела хлопчиків та юнаків "Дударик", диригент Микола Кацал (без супроводу), запис 1988 року
    11. Частина з "Панахиди за померлими з голоду" - Євген Станкович, слова Дмитра Павличка, Ніна Матвієнко, Державний ансамбль солістів "Київська камерата", диригент Валерій Матюхін, запис 1992 року

    Симфонія на вірші Тараса Шевченка - Олег Кива, Ніна Матвієнко, Державний ансамбль солістів "Київська камерата", диригент Володимир Сіренко, запис 1990 року
    12. 1 ч. "Зоре моя вечірняя"
    13. 2 ч. "І серце одпочине"
    14. 3 ч. "Світає, край неба палає"
EAC log
Exact Audio Copy V1.0 beta 3 from 29. August 2011

Отчёт EAC об извлечении, выполненном 9. февраля 2013, 11:07

Ніна Матвієнко / Осінь, така мила

Дисковод: HL-DT-STDVD-RAM GSA-H58N Adapter: 0 ID: 0

Режим чтения : Достоверность
Использование точного потока : Да
Отключение кэша аудио : Да
Использование указателей C2 : Нет

Коррекция смещения при чтении : 102
Способность читать области Lead-in и Lead-out : Нет
Заполнение пропущенных сэмплов тишиной : Да
Удаление блоков с тишиной в начале и конце : Нет
При вычислениях CRC использовались нулевые сэмплы : Да
Интерфейс : Встроенный Win32-интерфейс для Win NT/2000

Выходной формат : Пользовательский кодировщик
Выбранный битрейт : 1024 kBit/s
Качество : Высокий
Добавление ID3-тега : Нет
Утилита сжатия : D:\soft_2\EAC\Exact Audio Copy\Flac\flac.exe
Дополнительные параметры : -V -8 -T "Date=%year%" -T "Genre=%genre%" %source%

TOC извлечённого CD

Трек | Старт | Длительность | Начальный сектор | Конечный сектор
---------------------------------------------------------------------
1 | 0:00.00 | 10:27.60 | 0 | 47084
2 | 10:27.60 | 3:44.08 | 47085 | 63892
3 | 14:11.68 | 4:03.12 | 63893 | 82129
4 | 18:15.05 | 4:06.06 | 82130 | 100585
5 | 22:21.11 | 3:42.23 | 100586 | 117258
6 | 26:03.34 | 5:55.21 | 117259 | 143904
7 | 31:58.55 | 2:28.09 | 143905 | 155013
8 | 34:26.64 | 3:31.01 | 155014 | 170839
9 | 37:57.65 | 3:53.00 | 170840 | 188314
10 | 41:50.65 | 3:07.03 | 188315 | 202342
11 | 44:57.68 | 7:19.06 | 202343 | 235273
12 | 52:16.74 | 6:36.03 | 235274 | 264976
13 | 58:53.02 | 4:45.17 | 264977 | 286368
14 | 63:38.19 | 5:19.03 | 286369 | 310296

Характеристики диапазона извлечения и сообщения об ошибках

Выбранный диапазон

Имя файла N:\Роздачі\Ніна Матвієнко\Ніна Матвієнко\2009 - Осінь, така мила\Ніна Матвієнко - Осінь, така мила.wav

Пиковый уровень 94.9 %
Скорость извлечения 3.0 X
Качество диапазона 100.0 %
CRC теста 6CBEEF8F
CRC копии 6CBEEF8F
Копирование... OK

Ошибок не произошло

Конец отчёта

==== Контрольная сумма отчёта B70D5A33F4E276313C3466BB4EF5E53B3A878FF439C9B7369E5D29FB4E5A6926 ====
Спектр
Тривалість: 01:08:57
Мова: українська
Аудіо-кодек: FLAC
Бітрейт: 544 кб/с
Видавець: Астра
Ніна Матвієнко та Ансамбль Давньої Музики під керуванням Костянтина Чечені
2003 - О, розкошная Венеро




    01. "О, розкошная Венеро"
    02. Танець з табулатури Войцеха Длугорая (1619 р.)
    03. "Поміж трьома дорогами"
    04. Твір № 28 з рукописної збірки XVII ст.*
    05. "Бистренькії річоньки"
    06. Танці з вільнюської табулатури (ХVІ-ХVІІ ст.)
    07. "Подякуйте Христу Пану"
    08. "Кто кріпко на Бога уповая" - Феофан Прокопович
    09. Твір № 157. 192 з рукописної збірки XVII ст.*
    10. "В неділеньку рано"
    11. Русинський танець
    12. "Ганусенько, коханая"
    13. Твір № 194. 26 з рукописної збірки XVII ст.*
    14. "Ой весно"
    15. Танець з табулатури Войцеха Длугорая (1619 р.)
    16. "Нещасная доля без милого жити"
    17. "Ой біда, біда мні, чайці-небозі"
    18. Танець з табулатури Войцеха Длугорая (1619 р.)
    19. "Два брати милі сіно косили"
    20. "Ісусе Христе, Господи мій"
    21. Танець з табулатури Войцеха Длугорая (1619 р.)


* Нумерація творів з видання "Muzycne silva rerum z XVII wieku" PWM W. 1970
EAC log
Exact Audio Copy V1.0 beta 3 from 29. August 2011

Отчёт EAC об извлечении, выполненном 12. января 2013, 1:06

Ніна Матвієнко та Ансамбль давньої музики Костянтина Чечені / О, розкошная Венеро

Дисковод: PHILIPS SPD2519T Adapter: 2 ID: 0

Режим чтения : Достоверность
Использование точного потока : Да
Отключение кэша аудио : Да
Использование указателей C2 : Нет

Коррекция смещения при чтении : 6
Способность читать области Lead-in и Lead-out : Нет
Заполнение пропущенных сэмплов тишиной : Да
Удаление блоков с тишиной в начале и конце : Нет
При вычислениях CRC использовались нулевые сэмплы : Да
Интерфейс : Встроенный Win32-интерфейс для Win NT/2000

Выходной формат : Пользовательский кодировщик
Выбранный битрейт : 1024 kBit/s
Качество : Высокий
Добавление ID3-тега : Нет
Утилита сжатия : D:\soft_2\EAC\Exact Audio Copy\Flac\flac.exe
Дополнительные параметры : -V -8 -T "Date=%year%" -T "Genre=%genre%" %source%

TOC извлечённого CD

Трек | Старт | Длительность | Начальный сектор | Конечный сектор
---------------------------------------------------------------------
1 | 0:00.00 | 4:36.68 | 0 | 20767
2 | 4:36.68 | 0:53.45 | 20768 | 24787
3 | 5:30.38 | 4:19.65 | 24788 | 44277
4 | 9:50.28 | 2:21.20 | 44278 | 54872
5 | 12:11.48 | 3:51.54 | 54873 | 72251
6 | 16:03.27 | 2:33.35 | 72252 | 83761
7 | 18:36.62 | 3:50.58 | 83762 | 101069
8 | 22:27.45 | 2:42.21 | 101070 | 113240
9 | 25:09.66 | 1:35.51 | 113241 | 120416
10 | 26:45.42 | 2:55.60 | 120417 | 133601
11 | 29:41.27 | 3:08.47 | 133602 | 147748
12 | 32:49.74 | 3:11.54 | 147749 | 162127
13 | 36:01.53 | 2:23.40 | 162128 | 172892
14 | 38:25.18 | 1:57.62 | 172893 | 181729
15 | 40:23.05 | 1:09.56 | 181730 | 186960
16 | 41:32.61 | 3:16.57 | 186961 | 201717
17 | 44:49.43 | 4:39.25 | 201718 | 222667
18 | 49:28.68 | 1:59.14 | 222668 | 231606
19 | 51:28.07 | 4:26.23 | 231607 | 251579
20 | 55:54.30 | 5:01.34 | 251580 | 274188
21 | 60:55.64 | 1:22.46 | 274189 | 280384

Характеристики диапазона извлечения и сообщения об ошибках

Выбранный диапазон

Имя файла N:\Роздачі\Ніна Матвієнко\2003 - О, розкошная Венеро\Ніна Матвієнко та Ансамбль давньої музики Костянтина Чечені - О, розкошная Венеро.wav

Пиковый уровень 97.7 %
Скорость извлечения 2.9 X
Качество диапазона 100.0 %
CRC теста 6C6864FC
CRC копии 6C6864FC
Копирование... OK

Ошибок не произошло

Конец отчёта

==== Контрольная сумма отчёта EC9AAF2AD308BB773FAE4B36AC59EF801088493288F7C6B5CD35DB089B97DF33 ====
Спектр
Виконавці:
    Ніна Матвієнко
    Костянтин Чеченя - лютня, блокфлейти, ударні
    Ірина Чеченя - ребек (гудок), спів (№19)
    Олександр Савченко - блокфлейти (сопрано, альт)
    Вадим Шевчук - колісна ліра (реля)


Тривалість: 01:02:18
Мова: українська
Аудіо-кодек: FLAC
Бітрейт: 694 кб/с
Видавець: Темпора
2012 - Всякому Городу Нрав і Права




    01. Весільні награвання із записів О. Кольберга
    02. Всякому городу нрав і права (слова та мелодія Г. Сковороди)
    03. Ой ти, птичко жовтобока (слова та мелодія Г. Сковороди)
    04. Танцювальні мелодії з "Вертепу" (невідомий автор)
    05. Ох, щастіє, щастіє, бідноє, злоє (слова та мелодія Г. Сковороди)
    06. Твір № 170 з рукописної збірки XVII ст. (невідомий автор)*
    07. Чи я була чи не красная (невідомий автор)
    08. Твір № 167 з рукописної збірки XVII ст. (невідомий автор)*
    09. Ох, несносним жалем серце мі стиснено (невідомий автор)
    10. Мантована (танець з табулатури XVII ст. Б. Пенкеля)
    11. Тужив, гукав жалосливе голуб на бучині (невідомий автор)
    12. Твір № 201 з рукописної збірки XVII ст. (невідомий автор)*
    13. Ах, Українонько, бідна годинонька тепер твоя (невідомий автор)
    14. П`єса (невідомий автор XVII ст.)
    15. Танець (невідомий автор XVI ст.)
    16. Козачок (невідомий автор XVIII ст.)
    17. Ах, ушли мої літа (слова та мелодія Г. Сковороди)
    18. Танець "Вирваний" (невідомий автор XVII ст.)
    19. Взирай з приліжанієм, тлінний чоловіче (слова та мелодія Д. Туптала)


* Нумерація творів з видання "Muzycne Silva Perum z XVII wieku PWM". W. 1970
EAC log
Exact Audio Copy V1.0 beta 3 from 29. August 2011

Отчёт EAC об извлечении, выполненном 7. февраля 2012, 0:13

Ніна Матвієнко та Ансамбль Давньої Музики під керуванням Костянтина Чечені / Всякому Городу Нрав і Права

Дисковод: PHILIPS SPD2519T Adapter: 2 ID: 0

Режим чтения : Достоверность
Использование точного потока : Да
Отключение кэша аудио : Да
Использование указателей C2 : Нет

Коррекция смещения при чтении : 6
Способность читать области Lead-in и Lead-out : Нет
Заполнение пропущенных сэмплов тишиной : Да
Удаление блоков с тишиной в начале и конце : Нет
При вычислениях CRC использовались нулевые сэмплы : Да
Интерфейс : Встроенный Win32-интерфейс для Win NT/2000

Выходной формат : Пользовательский кодировщик
Выбранный битрейт : 1024 kBit/s
Качество : Высокий
Добавление ID3-тега : Нет
Утилита сжатия : D:\soft_2\EAC\Exact Audio Copy\Flac\flac.exe
Дополнительные параметры : -V -8 -T "Date=%year%" -T "Genre=%genre%" %source%

TOC извлечённого CD

Трек | Старт | Длительность | Начальный сектор | Конечный сектор
---------------------------------------------------------------------
1 | 0:00.00 | 2:41.47 | 0 | 12121
2 | 2:41.47 | 2:33.24 | 12122 | 23620
3 | 5:14.71 | 2:36.28 | 23621 | 35348
4 | 7:51.24 | 2:06.73 | 35349 | 44871
5 | 9:58.22 | 2:44.05 | 44872 | 57176
6 | 12:42.27 | 1:19.41 | 57177 | 63142
7 | 14:01.68 | 3:15.29 | 63143 | 77796
8 | 17:17.22 | 2:28.38 | 77797 | 88934
9 | 19:45.60 | 3:27.03 | 88935 | 104462
10 | 23:12.63 | 0:58.42 | 104463 | 108854
11 | 24:11.30 | 4:04.05 | 108855 | 127159
12 | 28:15.35 | 1:13.05 | 127160 | 132639
13 | 29:28.40 | 4:46.61 | 132640 | 154150
14 | 34:15.26 | 2:04.25 | 154151 | 163475
15 | 36:19.51 | 3:20.59 | 163476 | 178534
16 | 39:40.35 | 2:25.17 | 178535 | 189426
17 | 42:05.52 | 5:45.18 | 189427 | 215319
18 | 47:50.70 | 0:57.63 | 215320 | 219657
19 | 48:48.58 | 3:59.43 | 219658 | 237625

Характеристики диапазона извлечения и сообщения об ошибках

Выбранный диапазон

Имя файла E:\Музіка!\from EAC\Ніна Матвієнко та Ансамбль Давньої Музики під керуванням Костянтина Чечені - Всякому Городу Нрав і Права.wav

Пиковый уровень 98.8 %
Скорость извлечения 6.3 X
Качество диапазона 100.0 %
CRC теста 5D101153
CRC копии 5D101153
Копирование... OK

Ошибок не произошло

AccurateRip: сводка

Трек 1 отсутствует в базе данных
Трек 2 отсутствует в базе данных
Трек 3 отсутствует в базе данных
Трек 4 отсутствует в базе данных
Трек 5 отсутствует в базе данных
Трек 6 отсутствует в базе данных
Трек 7 отсутствует в базе данных
Трек 8 отсутствует в базе данных
Трек 9 отсутствует в базе данных
Трек 10 отсутствует в базе данных
Трек 11 отсутствует в базе данных
Трек 12 отсутствует в базе данных
Трек 13 отсутствует в базе данных
Трек 14 отсутствует в базе данных
Трек 15 отсутствует в базе данных
Трек 16 отсутствует в базе данных
Трек 17 отсутствует в базе данных
Трек 18 отсутствует в базе данных
Трек 19 отсутствует в базе данных

Ни одного трека нет в базе AccurateRip

Конец отчёта

==== Контрольная сумма отчёта 35E27C74BCB84FD26330BF623D8636DE3A18C8FF6D989AE6D16517A8FA972160 ====
Спектр
Виконавці:
    Ніна Матвієнко - спів
    Костянтин Чеченя - лютня, ударні інструменти
    Ярема Шевчук - колісна ліра, блок-флейта, дуда
    Олександр Савченко - блок-флейти


Тривалість: 00:52:48
Мова: українська
Аудіо-кодек: FLAC
Бітрейт: 902 кб/с
Видавець: Країна Мрій
Ніна Матвієнко. Тріо Золоті Ключі
2006 - Українські народні пісні




    01. "Гей, долино, долиночко", Ніна Матвієнко, запис 1967р
    02. "Ой, на морі, на морі", Антоніна та Ніна Матвієнко, запис 1979р
    03. "Шумить, гуде ліщинонька", записана від мами, Антоніни Ільківни Матвієнко в с.Неділище Житомирської області, Ніна Матвієнко, запис 1972р
    04. "Защебетала сива ластівка", щедрівка, обробка Філарета Колесси, тріо "Золоті Ключі", запис 1979р
    05. "Хтось у борі гукає", подільська веснянка, записана від мами, обробка Валентини Кузик, тріо "Золоті ключі", запис 1976р
    06. "Зелене вино", щедрівка, записана від мами, сл. Миколи Сома, тріо "Золоті Ключі", запис 1971р
    07. "Веснянка" ("Розійшлись хмарки, гляне сонечко"), муз. та слова Ніни Матвієнко, Ніна Матвієнко, оркестр народних інструментів п/к Станіслава Павлюченка, запис 1971р
    08. "Дудочка", веснянка, записана від мами, обробка Валентини Кузик, тріо "Золоті Ключі", запис 1976р
    09. "Вийди, вийди, Іваночку", веснянка, тріо "Золоті Ключі", запис 1976р
    10. "Коло млина - кременина", записана від мами, обробка Валентини Кузик, тріо "Золоті Ключі", запис 1976р
    11. "Терен, мати", записана від мами, тріо "Золоті Ключі", запис 1976р
    12. "А в городі клен-дерево родить", записана від мами, Ніна Матвієнко, запис 1972р
    13. "Ой, при лужку", тріо "Золоті Ключі", запис 1976р
    14. "О, милий мій", веснянка, Ніна Матвієнко, запис 1983р
    15. "Ой, сосонко", весільна, записана від мами, Ніна Матвієнко, запис 1972р
    16. "Роман-зілля", петрівка, записана від мами, обробка Валентини Кузик, тріо "Золоті Ключі", запис 1972р
    17. "Ой, до бору стежечка", петрівка, Ніна Матвієнко, запис 1972р
    18. "Петрівка", записана в с.Крячківка Пирятинського р-ну Полтавської обл., Ніна Матвієнко, запис 1988р
    19. "Нема мого Петруся", веснянка, записана від мами, тріо "Золоті Ключі", запис 1976р
    20. "Ой, у полі дерево", записана в с.Крячківка Пирятинського р-ну Полтавської обл., тріо "Золоті Ключі", запис 1976р
    21. "Цвіте терен", лірична, обробка Анатолія Авдієвського, Державний заслужений Український народний хор ім. Григорія Верьовки, солістки: Ніна Матвієнко, Валентина Хиценко, запис 1967р
    22. "Чорноморець, матінко", записана від мами, тріо "Золоті Ключі", запис 1976р
    23. "Ой, ти, дубе, дубе", дівоча лірична, Ніна Матвієнко, запис 1972р
    24. "Ой, не жалько мені", записана в с. Крячківка Пирятинського р-ну Полтавської обл., тріо "Золоті Ключі", запис 1986р
    25. "Ой, гаю, мій гаю", обробка Григорія Верьовки, тріо "Золоті Ключі", запис 1976р
    26. "Ой, у лузі при лужечку", записана від мами, Ніна Матвієнко, запис 1972р
    27. "Ой, по під гай зелененький", тріо "Золоті Ключі", запис 1976р
    28. "Ой, виорю нивку", записана на Житомирщині, тріо "Золоті Ключі", запис 1997р
    29. "Летіла зозуля", записана від мами, Ніна Матвієнко, запис 1983р
    30. "Ой, поїхав чоловік у поле орати", записана від мами, Ніна Матвієнко, запис 1970р
    31. "А на добрий вечір", щедрівка, із записів "Канадського зошита", Ніна Матвієнко, запис 2002р
EAC log
Exact Audio Copy V1.0 beta 3 from 29. August 2011

Отчёт EAC об извлечении, выполненном 3. февраля 2013, 14:51

Ніна Матвієнко. Тріо "Золоті Ключі" / Українські народні пісні

Дисковод: HL-DT-STDVD-RAM GSA-H58N Adapter: 0 ID: 0

Режим чтения : Достоверность
Использование точного потока : Да
Отключение кэша аудио : Да
Использование указателей C2 : Нет

Коррекция смещения при чтении : 102
Способность читать области Lead-in и Lead-out : Нет
Заполнение пропущенных сэмплов тишиной : Да
Удаление блоков с тишиной в начале и конце : Нет
При вычислениях CRC использовались нулевые сэмплы : Да
Интерфейс : Встроенный Win32-интерфейс для Win NT/2000

Выходной формат : Пользовательский кодировщик
Выбранный битрейт : 1024 kBit/s
Качество : Высокий
Добавление ID3-тега : Нет
Утилита сжатия : D:\soft_2\EAC\Exact Audio Copy\Flac\flac.exe
Дополнительные параметры : -V -8 -T "Date=%year%" -T "Genre=%genre%" %source%

TOC извлечённого CD

Трек | Старт | Длительность | Начальный сектор | Конечный сектор
---------------------------------------------------------------------
1 | 0:00.00 | 2:46.09 | 0 | 12458
2 | 2:46.09 | 2:16.50 | 12459 | 22708
3 | 5:02.59 | 2:26.00 | 22709 | 33658
4 | 7:28.59 | 1:02.02 | 33659 | 38310
5 | 8:30.61 | 0:57.06 | 38311 | 42591
6 | 9:27.67 | 1:26.00 | 42592 | 49041
7 | 10:53.67 | 1:27.00 | 49042 | 55566
8 | 12:20.67 | 1:49.04 | 55567 | 63745
9 | 14:09.71 | 1:04.00 | 63746 | 68545
10 | 15:13.71 | 2:30.02 | 68546 | 79797
11 | 17:43.73 | 1:33.02 | 79798 | 86774
12 | 19:17.00 | 1:45.05 | 86775 | 94654
13 | 21:02.05 | 2:24.02 | 94655 | 105456
14 | 23:26.07 | 2:38.03 | 105457 | 117309
15 | 26:04.10 | 1:34.07 | 117310 | 124366
16 | 27:38.17 | 1:20.07 | 124367 | 130373
17 | 28:58.24 | 1:05.07 | 130374 | 135255
18 | 30:03.31 | 3:18.09 | 135256 | 150114
19 | 33:21.40 | 1:32.02 | 150115 | 157016
20 | 34:53.42 | 3:05.02 | 157017 | 170893
21 | 37:58.44 | 5:12.10 | 170894 | 194303
22 | 43:10.54 | 2:22.05 | 194304 | 204958
23 | 45:32.59 | 3:36.05 | 204959 | 221163
24 | 49:08.64 | 3:02.02 | 221164 | 234815
25 | 52:10.66 | 3:26.03 | 234816 | 250268
26 | 55:36.69 | 2:25.02 | 250269 | 261145
27 | 58:01.71 | 4:04.02 | 261146 | 279447
28 | 62:05.73 | 4:08.03 | 279448 | 298050
29 | 66:14.01 | 3:30.06 | 298051 | 313806
30 | 69:44.07 | 1:10.03 | 313807 | 319059
31 | 70:54.10 | 1:49.00 | 319060 | 327234

Характеристики диапазона извлечения и сообщения об ошибках

Выбранный диапазон

Имя файла N:\Роздачі\Ніна Матвієнко\Ніна Матвієнко. Тріо Золоті Ключі\2006 - Українські народні пісні\Ніна Матвієнко. Тріо ''Золоті Ключі'' - Українські народні пісні.wav

Пиковый уровень 100.0 %
Скорость извлечения 3.1 X
Качество диапазона 99.9 %
CRC теста D584F0C7
CRC копии D584F0C7
Копирование... OK

Ошибок не произошло

Конец отчёта

==== Контрольная сумма отчёта 1DF1973DDF4C024E13CA853BA09E2F9B29CB21B0A9EB2BC22F4DEB0D435980CF ====
Спектр
Тріо "Золоті ключі":
    Валентина Ковальська
    Ніна Матвієнко
    Марія Миколайчук


Тривалість: 01:12:43
Мова: українська
Аудіо-кодек: FLAC
Бітрейт: 585 кб/с
Видавець: Астра
Ніна та Тоня Матвієнко
2012 - Нове та найкраще




    01. Не метелиця лугом стелиться - Владислав Толмачов, слова Бориса Списаренка, Ніна Матвієнко, ОНІ УР п/к А. Бобиря, запис 1985р.
    02. Ой, у саду соловейко - українська народна пісня, поліська, від Антоніни Ільківни Матвієнко, оранж. О. Мацька, Тоня Матвієнко, запис 2008р
    03. Явори - українська народна пісня в обробці Романа Гриньківа, Ніна Матвієнко, Роман Гриньків, бандура, орк., запис 2012р
    04. Хто я для тебе - А. Тимощик, сл. Д. Гольде, Тоня Матвієнко, запис 2010р
    05. Либідь - Олександр Авагян, ВІА "Березень" п/к Олександра Авагяна, запис 1970р
    06. Сизокрилий голубонько - українська народна пісня, Київська обл., від Олександра Мельника, оранж. С. Доценка, Тоня Матвієнко, запис 2008р
    07. Тихо, тихо Дунай воду несе - українська народна пісня, Ніна Матвієнко (без супр.), запис 1988р
    08. Дивна квітка - Р. Квінта, сл. В. Куровського, Тоня Матвієнко, запис 2010р
    09. Веснянка ("Розійшлись хмарки, гляне сонечко") - Ніна Матвієнко (муз. і сл.), Ніна Матвієнко, оркестр народних інструментів п/к Станіслава Павлюченка, запис 1971р
    10. Дикі гуси - Ігор Поклад, сл. Юрія Рибчинського, Ніна Матвієнко, анс. "Мрія", запис 1972р
    11. Чарівна скрипка - Ігор Поклад, сл. Юрія Рибчинського, ЕСО УР п/к Р. Бабича, запис 1980р
    12. Як я люблю тебе - Ігор Поклад, сл. Дмитра Луценка, Ніна Матвієнко, ЕСО УР п/к Р. Бабича, запис 1989р
    13. Мої сни - Р. Квінта, сл. І. Цілик, Тоня Матвієнко, запис 2010р
    14. О, милий мій - українська народна пісня, записана від Михайла Задніпровського, Ніна Матвієнко (без супр.), запис 1983р
    15. А може ти - А. Підлужний (муз. і сл.), Тоня Матвієнко, запис 2012р
    16. Сміються, плачуть солов'ї ("Чари ночі") - муз. Василя безкоровайного, сл. Олександра Олеся, Ніна Матвієнко, інстр. анс. п/к В. Смогителя, запис 1988р
    17. Ви не йдіть, літа молоді - Вадим Смогитель (муз. і сл.), Ніна Матвієнко, інстр. анс. В. Смогителя, запис 1988р
    18. Колискова зорі - Ірина Кириліна, сл. Миколи Сингаївського, Ніна Матвієнко, ЕСО УР п/к В. Богуслава, запис 1983р
    19. Як я люблю тебе - Ігор Поклад, оранж. С. Грачова, сл. Дмитра Луценка, Тоня Матвієнко, запис 2009р
    20. Ой, роду наш красний - українська народна пісня, весільна з Київщини, обр. Вадима Смогителя, Ніна Матвієнко, запис 1988р
    21. Гілечко завиваємо - українська народна пісня, весільна с.Крячківка Полтавської обл., в обробці Романа Гриньківа, Ніна Матвієнко, Роман Гриньків, бандура, орк., запис 2012р
EAC log
Exact Audio Copy V1.0 beta 3 from 29. August 2011

Отчёт EAC об извлечении, выполненном 3. февраля 2013, 14:51

Ніна Матвієнко. Тріо "Золоті Ключі" / Українські народні пісні

Дисковод: HL-DT-STDVD-RAM GSA-H58N Adapter: 0 ID: 0

Режим чтения : Достоверность
Использование точного потока : Да
Отключение кэша аудио : Да
Использование указателей C2 : Нет

Коррекция смещения при чтении : 102
Способность читать области Lead-in и Lead-out : Нет
Заполнение пропущенных сэмплов тишиной : Да
Удаление блоков с тишиной в начале и конце : Нет
При вычислениях CRC использовались нулевые сэмплы : Да
Интерфейс : Встроенный Win32-интерфейс для Win NT/2000

Выходной формат : Пользовательский кодировщик
Выбранный битрейт : 1024 kBit/s
Качество : Высокий
Добавление ID3-тега : Нет
Утилита сжатия : D:\soft_2\EAC\Exact Audio Copy\Flac\flac.exe
Дополнительные параметры : -V -8 -T "Date=%year%" -T "Genre=%genre%" %source%

TOC извлечённого CD

Трек | Старт | Длительность | Начальный сектор | Конечный сектор
---------------------------------------------------------------------
1 | 0:00.00 | 2:46.09 | 0 | 12458
2 | 2:46.09 | 2:16.50 | 12459 | 22708
3 | 5:02.59 | 2:26.00 | 22709 | 33658
4 | 7:28.59 | 1:02.02 | 33659 | 38310
5 | 8:30.61 | 0:57.06 | 38311 | 42591
6 | 9:27.67 | 1:26.00 | 42592 | 49041
7 | 10:53.67 | 1:27.00 | 49042 | 55566
8 | 12:20.67 | 1:49.04 | 55567 | 63745
9 | 14:09.71 | 1:04.00 | 63746 | 68545
10 | 15:13.71 | 2:30.02 | 68546 | 79797
11 | 17:43.73 | 1:33.02 | 79798 | 86774
12 | 19:17.00 | 1:45.05 | 86775 | 94654
13 | 21:02.05 | 2:24.02 | 94655 | 105456
14 | 23:26.07 | 2:38.03 | 105457 | 117309
15 | 26:04.10 | 1:34.07 | 117310 | 124366
16 | 27:38.17 | 1:20.07 | 124367 | 130373
17 | 28:58.24 | 1:05.07 | 130374 | 135255
18 | 30:03.31 | 3:18.09 | 135256 | 150114
19 | 33:21.40 | 1:32.02 | 150115 | 157016
20 | 34:53.42 | 3:05.02 | 157017 | 170893
21 | 37:58.44 | 5:12.10 | 170894 | 194303
22 | 43:10.54 | 2:22.05 | 194304 | 204958
23 | 45:32.59 | 3:36.05 | 204959 | 221163
24 | 49:08.64 | 3:02.02 | 221164 | 234815
25 | 52:10.66 | 3:26.03 | 234816 | 250268
26 | 55:36.69 | 2:25.02 | 250269 | 261145
27 | 58:01.71 | 4:04.02 | 261146 | 279447
28 | 62:05.73 | 4:08.03 | 279448 | 298050
29 | 66:14.01 | 3:30.06 | 298051 | 313806
30 | 69:44.07 | 1:10.03 | 313807 | 319059
31 | 70:54.10 | 1:49.00 | 319060 | 327234

Характеристики диапазона извлечения и сообщения об ошибках

Выбранный диапазон

Имя файла N:\Роздачі\Ніна Матвієнко\Ніна Матвієнко. Тріо Золоті Ключі\2006 - Українські народні пісні\Ніна Матвієнко. Тріо ''Золоті Ключі'' - Українські народні пісні.wav

Пиковый уровень 100.0 %
Скорость извлечения 3.1 X
Качество диапазона 99.9 %
CRC теста D584F0C7
CRC копии D584F0C7
Копирование... OK

Ошибок не произошло

Конец отчёта

==== Контрольная сумма отчёта 1DF1973DDF4C024E13CA853BA09E2F9B29CB21B0A9EB2BC22F4DEB0D435980CF ====
Спектр
]URL=http://savepic.ru/4054002.htm][/URL]
Тривалість: 01:19:29
Мова: українська
Аудіо-кодек: FLAC
Бітрейт: 748 кб/с
Видавець: Астра
Тривалість: 13:17:50
Мова: українська
Аудіо-кодек: FLAC
Бітрейт: 544-902 кб/с
Джерело: Власні ріпи власних дисків

Якщо Ви справді бажаєте підтримати українське - після прослуховування, якщо музика вам сподобалась, придбайте ліцензійний диск. Підтримаймо вітчизняних виконавців!


Золотий реліз (завантажене не впливає на рейтинг)
 Трекер:    Зареєстрований   

Завантажити / скачати українську музику



відео для новачків



 Зареєстрований:   2015-01-04 12:10
 Розмір:   3.97 GB 
 Оцінка музики:   9.7/10 (Голосів: 40)
   
ssTAss 
Модератор музики


З нами з: 05.07.08
Востаннє: 07.12.16
Повідомлень: 10947

2013-02-14 19:37  
розкішний реліз
хоч і колекція, а не дискографія, надав золото
думаю, якщо буде можливість, то будете доповнювати (навіть і не власними дисками)

gosha.samovar 
VIP


З нами з: 08.09.10
Востаннє: 06.12.16
Повідомлень: 400

2013-02-14 20:23  
ssTAss
Дякую за відгук і за золото.
Дивна річ - ніде не вдалося знайти нормального переліку альбомів, які входять у дискографію Ніни Митрофанівни. Офіційного сайту - і то немає.
Але, з того, що мені відомо, тут не вистачає таких дисків:
    Ніна Матвієнко - "З маминих долонь" - 2006 (на диску зазначено "не для продажу" - знайти його поки що не вдалося);
    Тріо "Золоті ключі" - "Пісні Українського Народу" (частини 1-2) - диски хоч і вийшли порівняно недавно, але є якимись невловимими, навіть mp3 не зустрічав.

Можливо, колись пощастить придбати ці компакти - то, звісно, доповню.

Ну і, гадаю, ще за часів СРСР виходили вінілові платівки. Хто володіє інформацією, - підкажіть, будь ласка.

sko4 
Поважний учасник


З нами з: 23.06.08
Востаннє: 07.12.16
Повідомлень: 181

2013-02-14 21:59  
Та, реліз неймовірно чудовий! А де пощастио знайти "2003 - О, розкошная Венеро" ?
gosha.samovar 
VIP


З нами з: 08.09.10
Востаннє: 06.12.16
Повідомлень: 400

2013-02-14 22:22  
Цитата:
sko4
Та, реліз неймовірно чудовий!

Дякую.
Цитата:
А де пощастио знайти "2003 - О, розкошная Венеро" ?

Запропонували через інтернет.

gosha.samovar 
VIP


З нами з: 08.09.10
Востаннє: 06.12.16
Повідомлень: 400

2013-06-28 22:12  
Надвечір`я - Ніна Матвієнко з дочкою Тонею.

ukrainetoday 
Новенький


З нами з: 04.09.13
Востаннє: 13.10.13
Повідомлень: 1

2013-09-16 19:21  
Диски не поділені на окремі треки а грубо подані в цілості!
Жалко, бо прийдеться скачувати наново від інших авторів. :-(

ssTAss 
Модератор музики


З нами з: 05.07.08
Востаннє: 07.12.16
Повідомлень: 10947

2013-09-16 19:28  
ukrainetoday написано:
Диски не поділені на окремі треки а грубо подані в цілості!

не треба показувати власне невігластво, коли не знаєте, що таке луслес (і навіть не вмієте користуватись гугльом)

Бандуррра 
Частий відвідувач


З нами з: 07.01.14
Востаннє: 27.10.14
Повідомлень: 39

2014-10-02 23:00  
Круто - оце і є приклад нетлінного національного естрадного багатства й патріотизму України. Завжди щира, завжди порядна, завжди готова співати і підтримати, поспівчувати і говорити тільки правду! Голос просто божествений. Многая Вам літа, Богине-Простолюдинко! Ви і є Украна у всіх її пісених та фольклорних барвах. Руслана, Ніна Матвієнко, Олександр Пономарьов, "Океан Ельзи", Марія Бурмака - це перевірені часом та випробуваннями патріоти України! Слава їм та уклін! Якщо я когось не назвав - вибачте!
Gin_ger 
Новенький


З нами з: 25.03.11
Востаннє: 17.11.16
Повідомлень: 5

2014-12-26 01:29  
Допоможіть...
gosha.samovar 
VIP


З нами з: 08.09.10
Востаннє: 06.12.16
Повідомлень: 400

2014-12-26 10:02  
Gin_ger написано:
Допоможіть...

Що саме?

Gin_ger 
Новенький


З нами з: 25.03.11
Востаннє: 17.11.16
Повідомлень: 5

2014-12-26 13:44  
gosha.samovar написано:
Що саме?

Хотів скачати: Ніна Матвієнко - Осінь, така мила (2009)
Яндекс направив на: http://toloka.to/t41696
Happy

Виявилось, що не все так просто… Happy

gosha.samovar 
VIP


З нами з: 08.09.10
Востаннє: 06.12.16
Повідомлень: 400

2014-12-26 19:48  
Шановний, якщо Вам потрібна допомога, ставте конкретні запитання, ми постараємось Вам допомогти.
Gin_ger 
Новенький


З нами з: 25.03.11
Востаннє: 17.11.16
Повідомлень: 5

2014-12-26 21:55  
Дякую! Знайду альбом на іншому сайті. Sad (1)
ssTAss 
Модератор музики


З нами з: 05.07.08
Востаннє: 07.12.16
Повідомлень: 10947

2014-12-26 22:45  
Gin_ger написано:
Хотів скачати: Ніна Матвієнко - Осінь, така мила (2009)

так вантажте
завантажте торрент-файл і виберіть тільки альбом, який Вас цікавить (перед тим зніміть галочки зі всіх альбомів - "Зняти вибір")
скрін-шот

gosha.samovar 
VIP


З нами з: 08.09.10
Востаннє: 06.12.16
Повідомлень: 400

2015-01-04 12:12  
Увага! Торрент-файл змінено. Додано альбом "З маминих долонь" (2006).
FidelCastro 
Новенький


З нами з: 21.11.12
Востаннє: 22.11.16
Повідомлень: 4

2015-03-09 17:06  
Щиро дякую за чудову колекцію великої співачки і технічо бездоганне оформлення.
Щасти!

mukhomor 
Частий відвідувач


З нами з: 07.10.09
Востаннє: 07.12.16
Повідомлень: 39

2016-11-22 07:07  
Скоро виставлю касету «Співає Ніна Матвієнко» - видана у Канаді 1989 року — запис у Києві 1988 року. Запис — 29 пісень!
Ваш часовий пояс: GMT + 2 Години

Нова тема   Відповісти