Завантажити та скачати торренти українською


Quintessence Mystica - The 5th Harmonic Of Death (2011) [WV] | Symphonic Black Metal

Нові коментарі

Нова тема   Відповісти
Останній раз роздавалося ssTAss (2016-12-10)
Автор Повідомлення
ssTAss 
Модератор музики


З нами з: 05.07.08
Востаннє: 11.12.16
Повідомлень: 10954

2013-02-12 18:15  
Quintessence Mystica - The 5th Harmonic Of Death (2011) [WV] | Symphonic Black Metal

Quintessence Mystica - The 5th Harmonic Of Death (2011) [WV] | Symphonic Black Metal


Стиль: Symphonic Black Metal
Країна, місто: Україна, Харків
Видавець: Schwarzdorn Production
Виконавці:
Master Alafern: уся музика + вокал
Dromos Aniliagos: вокал
Пісні:
    01. Vector Space of Desires
    02. Triumph Of Cold Steel
    03. Aspects of Contemplation Projected Onto the Eternity
    04. Entropy of Sanity
    05. Crossroads of Time
    06. Metaphysics of War
    07. Unleashing the Dogs of War
    08. When Sacred Flame Inspires The Souls of Heroes
    09. Memorial
    10. The Symphony of The Bare Feelings
    11. Frankenwald Mystery
log
Exact Audio Copy V1.0 beta 3 from 29. August 2011

EAC extraction logfile from 19. June 2012, 20:44

Quintessence Mystica / The 5th Harmonic of Death

Used drive : PIONEER DVD-RW DVR-112D Adapter: 0 ID: 0

Read mode : Secure
Utilize accurate stream : Yes
Defeat audio cache : Yes
Make use of C2 pointers : No

Read offset correction : 48
Overread into Lead-In and Lead-Out : No
Fill up missing offset samples with silence : Yes
Delete leading and trailing silent blocks : No
Null samples used in CRC calculations : Yes
Used interface : Native Win32 interface for Win NT & 2000

Used output format : User Defined Encoder
Selected bitrate : 128 kBit/s
Quality : High
Add ID3 tag : Yes
Command line compressor : C:\Program Files\Exact Audio Copy\wavpack.exe
Additional command line options : -hm -w "Year=%year%" -w "Genre=%genre%" %source% %dest%

TOC of the extracted CD

Track | Start | Length | Start sector | End sector
---------------------------------------------------------
1 | 0:00.00 | 4:08.15 | 0 | 18614
2 | 4:08.15 | 4:36.39 | 18615 | 39353
3 | 8:44.54 | 5:13.35 | 39354 | 62863
4 | 13:58.14 | 2:05.49 | 62864 | 72287
5 | 16:03.63 | 4:56.74 | 72288 | 94561
6 | 21:00.62 | 0:38.59 | 94562 | 97470
7 | 21:39.46 | 5:44.65 | 97471 | 123335
8 | 27:24.36 | 3:56.70 | 123336 | 141105
9 | 31:21.31 | 3:19.73 | 141106 | 156103
10 | 34:41.29 | 4:30.00 | 156104 | 176353
11 | 39:11.29 | 3:43.36 | 176354 | 193114

Range status and errors

Selected range

Filename D:\Audio CD\QUINTESSENCE.MYSTICA.[2011].[CD].The.5th.Harmonic.Of.Death.[EAC-WV].by.Valera.[MeTaLMaDNeSS.TeaM]\Quintessence Mystica - The 5th Harmonic of Death.wav

Peak level 100.0 %
Extraction speed 6.3 X
Range quality 100.0 %
Test CRC 642CE409
Copy CRC 642CE409
Copy OK

No errors occurred

AccurateRip summary

Track 1 accurately ripped (confidence 1) [65C104BD] (AR v1)
Track 2 accurately ripped (confidence 1) [DCA0C1F9] (AR v1)
Track 3 accurately ripped (confidence 1) [40903E58] (AR v1)
Track 4 accurately ripped (confidence 1) [4425F83E] (AR v1)
Track 5 accurately ripped (confidence 1) [970C3AA8] (AR v1)
Track 6 accurately ripped (confidence 1) [20FD1927] (AR v1)
Track 7 accurately ripped (confidence 1) [D177FB01] (AR v1)
Track 8 accurately ripped (confidence 1) [CEDCC20C] (AR v1)
Track 9 accurately ripped (confidence 1) [C24A6784] (AR v1)
Track 10 accurately ripped (confidence 1) [8C357253] (AR v1)
Track 11 accurately ripped (confidence 1) [86C3E2F3] (AR v1)

All tracks accurately ripped

End of status report
fooCDtect
fooCDtect - foobar2000 + auCDtect, baralgin.

auCDtect: CD records authenticity detector, version 0.8.2
Copyright (c) 2004 Oleg Berngardt. All rights reserved.
Copyright (c) 2004 Alexander Djourik. All rights reserved.

mode: 0

===========================================
Track: 01 - Vector Space of Desires
Quality: CDDA 100%
===========================================
Track: 02 - Triumph Of Cold Steel
Quality: CDDA 100%
===========================================
Track: 03 - Aspects of Contemplation Projected Onto the Eternity
Quality: CDDA 100%
===========================================
Track: 04 - Entropy of Sanity
Quality: CDDA 100%
===========================================
Track: 05 - Crossroads of Time
Quality: CDDA 100%
===========================================
Track: 06 - Metaphysics of War
Quality: CDDA 100%
===========================================
Track: 07 - Unleashing the Dogs of War
Quality: CDDA 99%
===========================================
Track: 08 - When Sacred Flame Inspires The Souls of Heroes
Quality: CDDA 100%
===========================================
Track: 09 - Memorial
Quality: CDDA 94%
===========================================
Track: 10 - The Symphony of The Bare Feelings
Quality: CDDA 99%
===========================================
Track: 11 - Frankenwald Mystery
Quality: CDDA 100%
===========================================
Тривалість: 00:42:55
Мова: англійська
Аудіо-кодек: WavPack
Бітрейт: 999 кб/с
Джерело: MeTaLMaDNeSS (Valera)

Якщо Ви справді бажаєте підтримати українське - після прослуховування, якщо музика вам сподобалась,
придбайте ліцензійний диск.
Підтримаймо вітчизняних виконавців!


Срібний реліз (на рейтинг впливає 50% завантаженого)
 Трекер:    Зареєстрований   

Завантажити / скачати українську музику



відео для новачків



 Зареєстрований:   2015-09-20 14:00
 Розмір:   421 MB 
 Оцінка музики:   2.6/10 (Голосів: 16)
   
fanDYNAMO 
Частий відвідувач


З нами з: 30.12.12
Востаннє: 05.12.16
Повідомлень: 38

2013-02-17 09:21  
чому не завантажуеться? другий день 0%... Sad (1)
Oleksa9 
Поважний учасник


З нами з: 17.05.12
Востаннє: 10.12.16
Повідомлень: 225

2013-02-17 09:55  
Можливо не завантажуЄться тому, що немає чого й завантажувати Wide grin Ознайомився й нічого не зацікавило..... узагалі жодна з пісень.... Neutral
ssTAss 
Модератор музики


З нами з: 05.07.08
Востаннє: 11.12.16
Повідомлень: 10954

2015-09-20 14:01  
увага! торрент змінено
прохання перевантажити

Ваш часовий пояс: GMT + 2 Години

Нова тема   Відповісти