Завантажити та скачати торренти українською


Oleh Krysa, violin; Tatiana Tchekina, piano - Karol Szymanowski (2010) [FLAC] | Chamber Music

Нові коментарі

Нова тема   Відповісти
Останній раз роздавалося ssTAss (2016-12-11)
Автор Повідомлення
ssTAss 
Модератор музики


З нами з: 05.07.08
Востаннє: 11.12.16
Повідомлень: 10959

2013-02-12 00:30  
Oleh Krysa, violin; Tatiana Tchekina, piano - Karol Szymanowski (2010) [FLAC] | Chamber Music

Oleh Krysa, violin; Tatiana Tchekina, piano - Karol Szymanowski (2010) [FLAC] | Chamber Music


Стиль: Classic
Країна, місто: Україна, с. Ухані/Львів | Росія, Москва | США, Сент-Огастін
Сайти: Офіційний сайт
Видавець: TNC Recording
Виконавці:
Олег Криса - скрипка
Тетяна Чекіна - фортепіано
Пісні:
    01 - Sonata for Violin and Piano in D minor, op. 9 - 1st mov
    02 - Sonata for Violin and Piano in D minor, op. 9 - 2nd mov
    03 - Sonata for Violin and Piano in D minor, op. 9 - 3d mov
    04 - Nocturne and Tarantella, op. 28 - Nocturne
    05 - Nocturne and Tarantella, op. 28 - Tarantella
    06 - Three Myths, op. 30 - The Fountain of Arethusa
    07 - Three Myths, op. 30 - Narcissus
    08 - Three Myths, op. 30 - Dryads and Pan
    09 - Three Paganini Caprices, op. 40 - No. 20
    10 - Three Paganini Caprices, op. 40 - No. 21
    11 - Three Paganini Caprices, op. 40 - No. 24
log
Exact Audio Copy V0.99 prebeta 5 from 4. May 2009

EAC extraction logfile from 30. September 2010, 19:46

Oleh Krysa, violin; Tatiana Tchekina, piano / Karol Szymanowski

Used drive : PLEXTOR CD-R PX-W1210S Adapter: 6 ID: 4

Read mode : Secure
Utilize accurate stream : Yes
Defeat audio cache : Yes
Make use of C2 pointers : No

Read offset correction : 98
Overread into Lead-In and Lead-Out : No
Fill up missing offset samples with silence : Yes
Delete leading and trailing silent blocks : No
Null samples used in CRC calculations : Yes
Used interface : Installed external ASPI interface
Gap handling : Appended to previous track

Used output format : User Defined Encoder
Selected bitrate : 256 kBit/s
Quality : High
Add ID3 tag : No
Command line compressor : C:\Program Files\Exact Audio Copy\Flac\flac.exe
Additional command line options : -8 -V -T "ARTIST=%a" -T "TITLE=%t" -T "ALBUM=%g" -T "DATE=%y" -T "TRACKNUMBER=%n" -T "GENRE=%m" -T "COMMENT=EAC FLAC -8" %s

TOC of the extracted CD

Track | Start | Length | Start sector | End sector
---------------------------------------------------------
1 | 0:00.00 | 10:26.27 | 0 | 46976
2 | 10:26.27 | 6:47.00 | 46977 | 77501
3 | 17:13.27 | 5:50.40 | 77502 | 103791
4 | 23:03.67 | 5:34.58 | 103792 | 128899
5 | 28:38.50 | 5:43.65 | 128900 | 154689
6 | 34:22.40 | 5:39.17 | 154690 | 180131
7 | 40:01.57 | 7:05.48 | 180132 | 212054
8 | 47:07.30 | 7:59.22 | 212055 | 248001
9 | 55:06.52 | 2:58.48 | 248002 | 261399
10 | 58:05.25 | 2:26.52 | 261400 | 272401
11 | 60:32.02 | 5:14.23 | 272402 | 295974

Track 1

Filename C:\Temp-DVD\CD_O.Krysa_Szymanowski\01. Oleh Krysa, violin; Tatiana Tchekina, piano - Sonata for Violin and Piano in D minor, op. 9 - 1st mov.wav

Pre-gap length 0:00:02.00

Peak level 96.7 %
Track quality 100.0 %
Test CRC 1DB23B4C
Copy CRC 1DB23B4C
Copy OK

Track 2

Filename C:\Temp-DVD\CD_O.Krysa_Szymanowski\02. Oleh Krysa, violin; Tatiana Tchekina, piano - Sonata for Violin and Piano in D minor, op. 9 - 2nd mov.wav

Peak level 66.3 %
Track quality 100.0 %
Test CRC 7DAD3589
Copy CRC 7DAD3589
Copy OK

Track 3

Filename C:\Temp-DVD\CD_O.Krysa_Szymanowski\03. Oleh Krysa, violin; Tatiana Tchekina, piano - Sonata for Violin and Piano in D minor, op. 9 - 3d mov.wav

Peak level 81.5 %
Track quality 100.0 %
Test CRC E05160C1
Copy CRC E05160C1
Copy OK

Track 4

Filename C:\Temp-DVD\CD_O.Krysa_Szymanowski\04. Oleh Krysa, violin; Tatiana Tchekina, piano - Nocturne and Tarantella, op. 28 - Nocturne.wav

Peak level 87.8 %
Track quality 100.0 %
Test CRC A8A76BE9
Copy CRC A8A76BE9
Copy OK

Track 5

Filename C:\Temp-DVD\CD_O.Krysa_Szymanowski\05. Oleh Krysa, violin; Tatiana Tchekina, piano - Nocturne and Tarantella, op. 28 - Tarantella.wav

Peak level 100.0 %
Track quality 100.0 %
Test CRC 2383BA60
Copy CRC 2383BA60
Copy OK

Track 6

Filename C:\Temp-DVD\CD_O.Krysa_Szymanowski\06. Oleh Krysa, violin; Tatiana Tchekina, piano - Three Myths, op. 30 - The Fountain of Arethusa.wav

Peak level 96.8 %
Track quality 100.0 %
Test CRC A7024A56
Copy CRC A7024A56
Copy OK

Track 7

Filename C:\Temp-DVD\CD_O.Krysa_Szymanowski\07. Oleh Krysa, violin; Tatiana Tchekina, piano - Three Myths, op. 30 - Narcissus.wav

Peak level 73.6 %
Track quality 100.0 %
Test CRC EE2B9A2C
Copy CRC EE2B9A2C
Copy OK

Track 8

Filename C:\Temp-DVD\CD_O.Krysa_Szymanowski\08. Oleh Krysa, violin; Tatiana Tchekina, piano - Three Myths, op. 30 - Dryads and Pan.wav

Peak level 84.6 %
Track quality 100.0 %
Test CRC EAD377C6
Copy CRC EAD377C6
Copy OK

Track 9

Filename C:\Temp-DVD\CD_O.Krysa_Szymanowski\09. Oleh Krysa, violin; Tatiana Tchekina, piano - Three Paganini Caprices, op. 40 - No. 20.wav

Peak level 78.6 %
Track quality 99.9 %
Test CRC 7EE3F63A
Copy CRC 7EE3F63A
Copy OK

Track 10

Filename C:\Temp-DVD\CD_O.Krysa_Szymanowski\10. Oleh Krysa, violin; Tatiana Tchekina, piano - Three Paganini Caprices, op. 40 - No. 21.wav

Peak level 56.9 %
Track quality 100.0 %
Test CRC E987C59A
Copy CRC E987C59A
Copy OK

Track 11

Filename C:\Temp-DVD\CD_O.Krysa_Szymanowski\11. Oleh Krysa, violin; Tatiana Tchekina, piano - Three Paganini Caprices, op. 40 - No. 24.wav

Peak level 95.9 %
Track quality 100.0 %
Test CRC 5FF9D412
Copy CRC 5FF9D412
Copy OK

No errors occurred

End of status report
fooCDtect
fooCDtect - foobar2000 + auCDtect, baralgin.

auCDtect: CD records authenticity detector, version 0.8.2
Copyright (c) 2004 Oleg Berngardt. All rights reserved.
Copyright (c) 2004 Alexander Djourik. All rights reserved.

mode: 0

===========================================
Track: 01 - Sonata for Violin and Piano in D minor, op. 9 - 1st mov
Quality: CDDA 100%
===========================================
Track: 02 - Sonata for Violin and Piano in D minor, op. 9 - 2nd mov
Quality: CDDA 99%
===========================================
Track: 03 - Sonata for Violin and Piano in D minor, op. 9 - 3d mov
Quality: CDDA 100%
===========================================
Track: 04 - Nocturne and Tarantella, op. 28 - Nocturne
Quality: CDDA 99%
===========================================
Track: 05 - Nocturne and Tarantella, op. 28 - Tarantella
Quality: CDDA 100%
===========================================
Track: 06 - Three Myths, op. 30 - The Fountain of Arethusa
Quality: CDDA 100%
===========================================
Track: 07 - Three Myths, op. 30 - Narcissus
Quality: CDDA 100%
===========================================
Track: 08 - Three Myths, op. 30 - Dryads and Pan
Quality: CDDA 100%
===========================================
Track: 09 - Three Paganini Caprices, op. 40 - No. 20
Quality: CDDA 100%
===========================================
Track: 10 - Three Paganini Caprices, op. 40 - No. 21
Quality: CDDA 99%
===========================================
Track: 11 - Three Paganini Caprices, op. 40 - No. 24
Quality: CDDA 100%
===========================================
Тривалість: 01:05:46
Мова: відсутня
Аудіо-кодек: FLAC
Бітрейт: 596 кб/с
Джерело: інший трекер (зібрано в образ)
Додаткова інформація:
Кри́са Олег Васильович (*1 червня 1942, с. Ухані, нині на території Польщі) — український скрипаль, музичний педагог, професор Київської та Московської консерваторій, професор Інституту ім. Гнесіних, а також професор Істменівської музичної школи (Рочестер, США) і Мангеттенської школи музики, (Нью-Йорк, США). Заслужений артист УРСР.
Дружина — Тетяна Чекіна, піаністка


Якщо Ви справді бажаєте підтримати українське - після прослуховування, якщо музика вам сподобалась,
придбайте ліцензійний диск.
Підтримаймо вітчизняних виконавців!


Срібний реліз (на рейтинг впливає 50% завантаженого)
 Трекер:    Зареєстрований   

Завантажити / скачати українську музику



відео для новачків



 Зареєстрований:   2013-02-12 00:30
 Розмір:   286 MB 
 Оцінка музики:   6.1/10 (Голосів: 7)
   
Ваш часовий пояс: GMT + 2 Години

Нова тема   Відповісти