Завантажити та скачати торренти українською


Oleh Krysa, violin; Tatiana Tchekina, piano - Dedicated to Paganini (2010) [FLAC] | Chamber Music

Нові коментарі

Нова тема   Відповісти
Останній раз роздавалося ssTAss (2016-12-09)
Автор Повідомлення
ssTAss 
Модератор музики


З нами з: 05.07.08
Востаннє: 09.12.16
Повідомлень: 10948

2013-02-11 22:25  
Oleh Krysa, violin; Tatiana Tchekina, piano - Dedicated to Paganini (2010) [FLAC] | Chamber Music

Oleh Krysa, violin; Tatiana Tchekina, piano - Dedicated to Paganini (2010) [FLAC] | Chamber Music


Стиль: Classic
Країна, місто: Україна, с. Ухані/Львів | Росія, Москва | США, Сент-Огастін
Сайти: Офіційний сайт
Видавець: TNC Recording
Виконавці:
Олег Криса - скрипка
Тетяна Чекіна - фортепіано
Пісні:
    01 - Paganini - Sonatina in A minor, op. 2 No. 6
    02 - Paganini - Sonatina in A major, op. 2 No. 4
    03 - Paganini - Caprice, op. 1 No. 5
    04 - Paganini - Caprice, op. 1 No. 6
    05 - Paganini - Caprice, op. 1 No. 13
    06 - Paganini - Caprice, op. 1 No. 16
    07 - Paganini - Caprice, op. 1 No. 17
    08 - Paganini - Caprice, op. 1 No. 18
    09 - Paganini - Caprice, op. 1 No. 23
    10 - Szymanowski - Three Paganini Caprices, op. 40 - No. 20
    11 - Szymanowski - Three Paganini Caprices, op. 40 - No. 21
    12 - Szymanowski - Three Paganini Caprices, op. 40 - No. 24
    13 - Alfred Schnittke - 'A Paganini' for solo Violin
    14 - Paganini - Cantabile
    15 - Paganini - La Campanella
    16 - Paganini - Introduzione e variazioni su aria dal 'Tankredi' di Rossini
log
Exact Audio Copy V0.99 prebeta 5 from 4. May 2009

EAC extraction logfile from 30. September 2010, 19:14

Oleh Krysa, violin; Tatiana Tchekina, paino / Dedicated to Paganini

Used drive : PLEXTOR CD-R PX-W1210S Adapter: 6 ID: 4

Read mode : Secure
Utilize accurate stream : Yes
Defeat audio cache : Yes
Make use of C2 pointers : No

Read offset correction : 98
Overread into Lead-In and Lead-Out : No
Fill up missing offset samples with silence : Yes
Delete leading and trailing silent blocks : No
Null samples used in CRC calculations : Yes
Used interface : Installed external ASPI interface
Gap handling : Appended to previous track

Used output format : User Defined Encoder
Selected bitrate : 256 kBit/s
Quality : High
Add ID3 tag : No
Command line compressor : C:\Program Files\Exact Audio Copy\Flac\flac.exe
Additional command line options : -8 -V -T "ARTIST=%a" -T "TITLE=%t" -T "ALBUM=%g" -T "DATE=%y" -T "TRACKNUMBER=%n" -T "GENRE=%m" -T "COMMENT=EAC FLAC -8" %s

TOC of the extracted CD

Track | Start | Length | Start sector | End sector
---------------------------------------------------------
1 | 0:00.00 | 3:12.46 | 0 | 14445
2 | 3:12.46 | 3:00.39 | 14446 | 27984
3 | 6:13.10 | 2:46.47 | 27985 | 40481
4 | 8:59.57 | 3:55.38 | 40482 | 58144
5 | 12:55.20 | 2:44.62 | 58145 | 70506
6 | 15:40.07 | 1:42.44 | 70507 | 78200
7 | 17:22.51 | 3:24.54 | 78201 | 93554
8 | 20:47.30 | 2:38.59 | 93555 | 105463
9 | 23:26.14 | 5:13.44 | 105464 | 128982
10 | 28:39.58 | 2:46.58 | 128983 | 141490
11 | 31:26.41 | 2:19.62 | 141491 | 151977
12 | 33:46.28 | 4:58.09 | 151978 | 174336
13 | 38:44.37 | 11:47.20 | 174337 | 227381
14 | 50:31.57 | 3:41.69 | 227382 | 244025
15 | 54:13.51 | 4:48.21 | 244026 | 265646
16 | 59:01.72 | 10:00.18 | 265647 | 310664

Track 1

Filename C:\Temp-DVD\CD_O.Krysa_Paganini\01. Oleh Krysa, violin; Tatiana Tchekina, paino - Paganini - Sonatina in A minor, op. 2 No. 6.wav

Pre-gap length 0:00:02.00

Peak level 60.3 %
Track quality 99.9 %
Test CRC FC97DD88
Copy CRC FC97DD88
Copy OK

Track 2

Filename C:\Temp-DVD\CD_O.Krysa_Paganini\02. Oleh Krysa, violin; Tatiana Tchekina, paino - Paganini - Sonatina in A major, op. 2 No. 4.wav

Peak level 76.5 %
Track quality 100.0 %
Test CRC 889D7A96
Copy CRC 889D7A96
Copy OK

Track 3

Filename C:\Temp-DVD\CD_O.Krysa_Paganini\03. Oleh Krysa, violin; Tatiana Tchekina, paino - Paganini - Caprice, op. 1 No. 5.wav

Peak level 58.5 %
Track quality 100.0 %
Test CRC 35015912
Copy CRC 35015912
Copy OK

Track 4

Filename C:\Temp-DVD\CD_O.Krysa_Paganini\04. Oleh Krysa, violin; Tatiana Tchekina, paino - Paganini - Caprice, op. 1 No. 6.wav

Peak level 54.5 %
Track quality 100.0 %
Test CRC 8CB393F0
Copy CRC 8CB393F0
Copy OK

Track 5

Filename C:\Temp-DVD\CD_O.Krysa_Paganini\05. Oleh Krysa, violin; Tatiana Tchekina, paino - Paganini - Caprice, op. 1 No. 13.wav

Peak level 68.6 %
Track quality 100.0 %
Test CRC 8BC88F57
Copy CRC 8BC88F57
Copy OK

Track 6

Filename C:\Temp-DVD\CD_O.Krysa_Paganini\06. Oleh Krysa, violin; Tatiana Tchekina, paino - Paganini - Caprice, op. 1 No. 16.wav

Peak level 50.8 %
Track quality 99.8 %
Test CRC 5DC1FB93
Copy CRC 5DC1FB93
Copy OK

Track 7

Filename C:\Temp-DVD\CD_O.Krysa_Paganini\07. Oleh Krysa, violin; Tatiana Tchekina, paino - Paganini - Caprice, op. 1 No. 17.wav

Peak level 48.1 %
Track quality 100.0 %
Test CRC 08E3A026
Copy CRC 08E3A026
Copy OK

Track 8

Filename C:\Temp-DVD\CD_O.Krysa_Paganini\08. Oleh Krysa, violin; Tatiana Tchekina, paino - Paganini - Caprice, op. 1 No. 18.wav

Peak level 65.7 %
Track quality 100.0 %
Test CRC 3D34347B
Copy CRC 3D34347B
Copy OK

Track 9

Filename C:\Temp-DVD\CD_O.Krysa_Paganini\09. Oleh Krysa, violin; Tatiana Tchekina, paino - Paganini - Caprice, op. 1 No. 23.wav

Peak level 49.3 %
Track quality 100.0 %
Test CRC EA9D33D7
Copy CRC EA9D33D7
Copy OK

Track 10

Filename C:\Temp-DVD\CD_O.Krysa_Paganini\10. Oleh Krysa, violin; Tatiana Tchekina, paino - Szymanowski - Three Paganini Caprices, op. 40 - No. 20.wav

Peak level 68.0 %
Track quality 100.0 %
Test CRC 6426656A
Copy CRC 6426656A
Copy OK

Track 11

Filename C:\Temp-DVD\CD_O.Krysa_Paganini\11. Oleh Krysa, violin; Tatiana Tchekina, paino - Szymanowski - Three Paganini Caprices, op. 40 - No. 21.wav

Peak level 68.1 %
Track quality 99.9 %
Test CRC 3CC129E0
Copy CRC 3CC129E0
Copy OK

Track 12

Filename C:\Temp-DVD\CD_O.Krysa_Paganini\12. Oleh Krysa, violin; Tatiana Tchekina, paino - Szymanowski - Three Paganini Caprices, op. 40 - No. 24.wav

Peak level 84.2 %
Track quality 100.0 %
Test CRC 23F9C3FA
Copy CRC 23F9C3FA
Copy OK

Track 13

Filename C:\Temp-DVD\CD_O.Krysa_Paganini\13. Oleh Krysa, violin; Tatiana Tchekina, paino - Alfred Schnittke - 'A Paganini' for solo Violin.wav

Peak level 92.0 %
Track quality 99.9 %
Test CRC 4064227D
Copy CRC 4064227D
Copy OK

Track 14

Filename C:\Temp-DVD\CD_O.Krysa_Paganini\14. Oleh Krysa, violin; Tatiana Tchekina, paino - Paganini - Cantabile.wav

Peak level 62.6 %
Track quality 100.0 %
Test CRC 7492FBAD
Copy CRC 7492FBAD
Copy OK

Track 15

Filename C:\Temp-DVD\CD_O.Krysa_Paganini\15. Oleh Krysa, violin; Tatiana Tchekina, paino - Paganini - La Campanella.wav

Peak level 69.1 %
Track quality 100.0 %
Test CRC C13CF887
Copy CRC C13CF887
Copy OK

Track 16

Filename C:\Temp-DVD\CD_O.Krysa_Paganini\16. Oleh Krysa, violin; Tatiana Tchekina, paino - Paganini - Introduzione e variazioni su aria dal 'Tankredi' di Rossini.wav

Peak level 95.0 %
Track quality 100.0 %
Test CRC 11E125E1
Copy CRC 11E125E1
Copy OK

No errors occurred

End of status report
fooCDtect
fooCDtect - foobar2000 + auCDtect, baralgin.

auCDtect: CD records authenticity detector, version 0.8.2
Copyright (c) 2004 Oleg Berngardt. All rights reserved.
Copyright (c) 2004 Alexander Djourik. All rights reserved.

mode: 0

===========================================
Track: 01 - Paganini - Sonatina in A minor, op. 2 No. 6
Quality: CDDA 49%
===========================================
Track: 02 - Paganini - Sonatina in A major, op. 2 No. 4
Quality: CDDA 76%
===========================================
Track: 03 - Paganini - Caprice, op. 1 No. 5
Quality: CDDA 99%
===========================================
Track: 04 - Paganini - Caprice, op. 1 No. 6
Quality: CDDA 100%
===========================================
Track: 05 - Paganini - Caprice, op. 1 No. 13
Quality: CDDA 100%
===========================================
Track: 06 - Paganini - Caprice, op. 1 No. 16
Quality: CDDA 100%
===========================================
Track: 07 - Paganini - Caprice, op. 1 No. 17
Quality: CDDA 99%
===========================================
Track: 08 - Paganini - Caprice, op. 1 No. 18
Quality: CDDA 100%
===========================================
Track: 09 - Paganini - Caprice, op. 1 No. 23
Quality: CDDA 99%
===========================================
Track: 10 - Szymanowski - Three Paganini Caprices, op. 40 - No. 20
Quality: CDDA 76%
===========================================
Track: 11 - Szymanowski - Three Paganini Caprices, op. 40 - No. 21
Quality: CDDA 42%
===========================================
Track: 12 - Szymanowski - Three Paganini Caprices, op. 40 - No. 24
Quality: CDDA 58%
===========================================
Track: 13 - Alfred Schnittke - 'A Paganini' for solo Violin
Quality: CDDA 85%
===========================================
Track: 14 - Paganini - Cantabile
Quality: CDDA 100%
===========================================
Track: 15 - Paganini - La Campanella
Quality: CDDA 100%
===========================================
Track: 16 - Paganini - Introduzione e variazioni su aria dal 'Tankredi' di Rossini
Quality: CDDA 62%
===========================================
Тривалість: 01:09:02
Мова: відсутня
Аудіо-кодек: FLAC
Бітрейт: 676 кб/с
Джерело: інший трекер (зібрано в образ, виправлено помилки)
Додаткова інформація:
Кри́са Олег Васильович (*1 червня 1942, с. Ухані, нині на території Польщі) — український скрипаль, музичний педагог, професор Київської та Московської консерваторій, професор Інституту ім. Гнесіних, а також професор Істменівської музичної школи (Рочестер, США) і Мангеттенської школи музики, (Нью-Йорк, США). Заслужений артист УРСР.
Дружина — Тетяна Чекіна, піаністка


Якщо Ви справді бажаєте підтримати українське - після прослуховування, якщо музика вам сподобалась,
придбайте ліцензійний диск.
Підтримаймо вітчизняних виконавців!


Срібний реліз (на рейтинг впливає 50% завантаженого)
 Трекер:    Зареєстрований   

Завантажити / скачати українську музику



відео для новачків



 Зареєстрований:   2013-02-11 22:25
 Розмір:   339 MB 
 Оцінка музики:   6.6/10 (Голосів: 8)
   
Ваш часовий пояс: GMT + 2 Години

Нова тема   Відповісти