Завантажити та скачати торренти українською


Табула Раса - Колекція (2 альбоми) (1999-2005) [FLAC] | Alternative

Нові коментарі

Нова тема   Відповісти
Останній раз роздавалося and1972 (2016-11-28)
Автор Повідомлення
gosha.samovar 
VIP


З нами з: 08.09.10
Востаннє: 02.12.16
Повідомлень: 400

2013-02-10 15:17  
Табула Раса - Колекція (2 альбоми) (1999-2005) [FLAC] | Alternative



Стиль: Alternative Rock
Країна, місто: Україна, Київ
Сайти: Офіційний сайт
Пісні:
1999 - Бетельгейзе



01. Голоса Амстердама
02. I love you
03. Рандеву на Бетельгейзе
04. Булочка Ташкента
05. Море в яблоках
06. Мечта в конверте
07. Дождь
08. К тебе
09. Help me
10. В большом Peugeot
11. № 12
EAC log
Exact Audio Copy V1.0 beta 3 from 29. August 2011

Отчёт EAC об извлечении, выполненном 20. декабря 2012, 20:05

Табула Раса / Бетельгейзе

Дисковод: HL-DT-STDVD-RAM GSA-H58N Adapter: 0 ID: 0

Режим чтения : Достоверность
Использование точного потока : Да
Отключение кэша аудио : Да
Использование указателей C2 : Нет

Коррекция смещения при чтении : 102
Способность читать области Lead-in и Lead-out : Нет
Заполнение пропущенных сэмплов тишиной : Да
Удаление блоков с тишиной в начале и конце : Нет
При вычислениях CRC использовались нулевые сэмплы : Да
Интерфейс : Встроенный Win32-интерфейс для Win NT/2000

Выходной формат : Пользовательский кодировщик
Выбранный битрейт : 1024 kBit/s
Качество : Высокий
Добавление ID3-тега : Нет
Утилита сжатия : D:\soft_2\EAC\Exact Audio Copy\Flac\flac.exe
Дополнительные параметры : -V -8 -T "Date=%year%" -T "Genre=%genre%" %source%

TOC извлечённого CD

Трек | Старт | Длительность | Начальный сектор | Конечный сектор
---------------------------------------------------------------------
1 | 0:00.00 | 3:38.00 | 0 | 16349
2 | 3:38.00 | 3:14.09 | 16350 | 30908
3 | 6:52.09 | 4:19.53 | 30909 | 50386
4 | 11:11.62 | 3:56.52 | 50387 | 68138
5 | 15:08.39 | 3:45.63 | 68139 | 85076
6 | 18:54.27 | 3:45.61 | 85077 | 102012
7 | 22:40.13 | 3:54.01 | 102013 | 119563
8 | 26:34.14 | 4:41.46 | 119564 | 140684
9 | 31:15.60 | 4:18.26 | 140685 | 160060
10 | 35:34.11 | 4:00.00 | 160061 | 178060
11 | 39:34.11 | 3:28.23 | 178061 | 193683

Характеристики диапазона извлечения и сообщения об ошибках

Выбранный диапазон

Имя файла N:\Роздачі\Табула раса\1999 - Бетельгейзе\Табула Раса - Бетельгейзе.wav

Пиковый уровень 100.0 %
Скорость извлечения 2.5 X
Качество диапазона 99.9 %
CRC теста 96DE7E01
CRC копии 96DE7E01
Копирование... OK

Ошибок не произошло

Конец отчёта

==== Контрольная сумма отчёта 1C51A2D97153377F551D3446BFCCD7B36C8172BC8958AE2F4F79265B48134EC9 ====
Спектр
Тривалість: 00:43:02
Мова: російська
Аудіо-кодек: FLAC
Бітрейт: 951 кб/с
Видавець: J. R. C.

Склад:
    Олег Лапоногов: вокал, гітара
    Едуард Коссе: барабани
    Олександр Кіктєв: бас-гітара
    Сергій Міщенко: клавішні


Слова і музика: Олег Лапоногов

Запрошені музиканти:
    Олексій Александров: флейта (8)
    Михайло Алєксєєв: гітара (2, 9, 10)
    Роман Суржа: гітара (6)
2005 - Цветочные календари



01. Восток
02. Водопады морей
03. Апрель
04. В ожидании весны
05. Дети радуги
06. По дороге на моря
07. Алтай
08. Цветы на клумбе
09. Река Ориноко
10. Никого не слушай
11. Сказка
12. Серафим
EAC log
Exact Audio Copy V1.0 beta 3 from 29. August 2011

Отчёт EAC об извлечении, выполненном 21. декабря 2012, 12:24

Табула Раса / Цветочные календари

Дисковод: HL-DT-STDVD-RAM GSA-H58N Adapter: 0 ID: 0

Режим чтения : Достоверность
Использование точного потока : Да
Отключение кэша аудио : Да
Использование указателей C2 : Нет

Коррекция смещения при чтении : 102
Способность читать области Lead-in и Lead-out : Нет
Заполнение пропущенных сэмплов тишиной : Да
Удаление блоков с тишиной в начале и конце : Нет
При вычислениях CRC использовались нулевые сэмплы : Да
Интерфейс : Встроенный Win32-интерфейс для Win NT/2000

Выходной формат : Пользовательский кодировщик
Выбранный битрейт : 1024 kBit/s
Качество : Высокий
Добавление ID3-тега : Нет
Утилита сжатия : D:\soft_2\EAC\Exact Audio Copy\Flac\flac.exe
Дополнительные параметры : -V -8 -T "Date=%year%" -T "Genre=%genre%" %source%

TOC извлечённого CD

Трек | Старт | Длительность | Начальный сектор | Конечный сектор
---------------------------------------------------------------------
1 | 0:00.00 | 4:07.21 | 0 | 18545
2 | 4:07.21 | 3:04.62 | 18546 | 32407
3 | 7:12.08 | 3:54.49 | 32408 | 50006
4 | 11:06.57 | 4:10.36 | 50007 | 68792
5 | 15:17.18 | 3:33.40 | 68793 | 84807
6 | 18:50.58 | 3:21.39 | 84808 | 99921
7 | 22:12.22 | 5:23.33 | 99922 | 124179
8 | 27:35.55 | 4:30.39 | 124180 | 144468
9 | 32:06.19 | 4:41.25 | 144469 | 165568
10 | 36:47.44 | 4:44.56 | 165569 | 186924
11 | 41:32.25 | 3:44.09 | 186925 | 203733
12 | 45:16.34 | 3:57.55 | 203734 | 221563

Характеристики диапазона извлечения и сообщения об ошибках

Выбранный диапазон

Имя файла N:\Роздачі\Табула раса\2005 - Цветочные календари\Табула Раса - Цветочные календари.wav

Пиковый уровень 100.0 %
Скорость извлечения 2.5 X
Качество диапазона 99.9 %
CRC теста BA4C3A83
CRC копии BA4C3A83
Копирование... OK

Ошибок не произошло

Конец отчёта

==== Контрольная сумма отчёта E59C7319C825234F8B6E7BA62E81C8A9749FA5AD86BB332908774520C33CA723 ====
Спектр
Тривалість: 00:49:14
Мова: російська
Аудіо-кодек: FLAC
Бітрейт: 1033 кб/с
Видавець: Ukrainian Records

Склад:
    Олег Лапоногов - гітара, вокал
    Сергій Міщенко - клавішні
    Едуард Коссе - барабани


Запрошені музиканти:
    Сергій Гарай - бас-гітара (2, 4, 5, 6, 8, 9, 11)
    Анатолій Наконечний - бас-гітара (1)
    Сергій Доценко - бас-гітара (12)
    Юрій Остапенко - гітара (1, 9, 12)
    Юрій Погорецький - віолончель (7)
    учні середньої школи №195 міста Києва:
    Ілона Коцюба, Ілаха Нагієва, Аня Савіна, Настя Берендєєва, Надя Музичка, Юлія Бойко - вокал (5)
Тривалість: 01:32:16
Мова: російська
Аудіо-кодек: FLAC
Бітрейт: 951-1033 кб/с
Джерело: Власні ріпи власних дисків


Срібний реліз (на рейтинг впливає 50% завантаженого)
 Трекер:    Зареєстрований   

Завантажити / скачати українську музику



відео для новачків



 Зареєстрований:   2013-02-10 15:17
 Розмір:   734 MB 
 Оцінка музики:   7.3/10 (Голосів: 10)
   
scream69 
Новенький


З нами з: 13.03.10
Востаннє: 03.05.13
Повідомлень: 1

2013-05-03 09:52  
Роздайте будь-ласка.
K2 
Поважний учасник


З нами з: 02.11.08
Востаннє: 02.12.16
Повідомлень: 158

2014-03-15 14:23  
Дякую gosha.samovar! Музика з дитинства! Приєднайтесь до роздачі хто може.
Ваш часовий пояс: GMT + 2 Години

Нова тема   Відповісти