Завантажити та скачати торренти українською


Парфумер: історія одного вбивці / Perfume: the story of a murderer (2006) 1080p Ukr/Eng

Нові коментарі

Нова тема   Відповісти
Автор Повідомлення
Arsenfpu 
Відео Гуртом - фільмокрай
Відео Гуртом - фільмокрай


З нами з: 30.04.09
Востаннє: 08.12.16
Повідомлень: 1590

2013-02-10 11:48  
Парфумер: історія одного вбивці / Perfume: the story of a murderer (2006) 1080p Ukr/Eng

Парфумер: історія одного вбивці / Perfume: the story of a murderer (2006) 1080p Ukr/Eng


Жанр: драма, трилер
Країна: Франція, Німеччина, Іспанія, США



Кіностудія / кінокомпанія: Constantin Film Produktion
Режисер: Том Тіквер
Актори: Бен Уішоу, Алан Рікман, Рейчел Херд-Вуд, Дастін Хофман

Сюжет:
Жан-Батист Гренуй, володіючи унікальним талантом розпізнавати аромати, намагається пробитися у світ парфумерів. Він марить ідеєю винайти єдиний, неповторний аромат! У відчайдушних пошуках недостаючих компонентів Гренуй готовий піти на все, навіть на вбивство...


Тривалість: 02:27:24
Якість:
Відео:
кодек:
розмір кадру: 1920 х 816 (2.35)
бітрейт: 11.3 Mbps

Аудіо # 1:
мова: українська
переклад: професійний дубльований
кодек: 5.1
бітрейт: 384 кб/с

Аудіо # 2:
мова: англійська
переклад: оригінал
кодек: 5.1
бітрейт: 640 кб/с
MediaInfo
General
Format : Matroska
Format version : Version 2
File size : 12.7 GiB
Duration : 2h 27mn
Overall bit rate : 12.3 Mbps
Encoded date : UTC 2013-02-10 12:09:03
Writing application : mkvmerge v5.4.0 ('Piper') built on Mar 10 2012 13:34:39
Writing library : libebml v1.2.3 + libmatroska v1.3.0

Video
ID : 1
Format : AVC
Format/Info : Advanced Video Codec
Format profile : [email protected]
Format settings, CABAC : Yes
Format settings, ReFrames : 5 frames
Codec ID : V_MPEG4/ISO/AVC
Duration : 2h 27mn
Bit rate : 11.3 Mbps
Width : 1 920 pixels
Height : 816 pixels
Display aspect ratio : 2.35:1
Frame rate : 23.976 fps
Color space : YUV
Chroma subsampling : 4:2:0
Bit depth : 8 bits
Scan type : Progressive
Bits/(Pixel*Frame) : 0.301
Stream size : 11.4 GiB (90%)
Writing library : core 60
Encoding settings : cabac=1 / ref=5 / deblock=1:-3:-3 / analyse=0x3:0x113 / me=umh / subme=6 / psy_rd=1.000000 / brdo=1 / mixed_ref=1 / me_range=16 / chroma_me=1 / trellis=0 / 8x8dct=1 / cqm=2 / deadzone=6,4 / chroma_qp_offset=0 / threads=6 / nr=0 / decimate=0 / mbaff=0 / bframes=16 / b_pyramid=1 / b_adapt=1 / b_bias=0 / direct=1 / wpredb=1 / bime=1 / keyint=250 / keyint_min=25 / scenecut=40(pre) / rc=2pass / bitrate=11311 / ratetol=1.0 / rceq='blurCplx^(1-qComp)' / qcomp=1.00 / qpmin=10 / qpmax=51 / qpstep=4 / cplxblur=20.0 / qblur=0.5 / ip_ratio=1.40 / pb_ratio=1.30 / aq=2:1.00
Language : English

Audio #1
ID : 2
Format : AC-3
Format/Info : Audio Coding 3
Mode extension : CM (complete main)
Codec ID : A_AC3
Duration : 2h 27mn
Bit rate mode : Constant
Bit rate : 384 Kbps
Channel(s) : 6 channels
Channel positions : Front: L C R, Side: L R, LFE
Sampling rate : 48.0 KHz
Bit depth : 16 bits
Compression mode : Lossy
Stream size : 405 MiB (3%)
Title : Дубляж
Language : Ukrainian

Audio #2
ID : 3
Format : AC-3
Format/Info : Audio Coding 3
Mode extension : CM (complete main)
Codec ID : A_AC3
Duration : 2h 27mn
Bit rate mode : Constant
Bit rate : 640 Kbps
Channel(s) : 6 channels
Channel positions : Front: L C R, Side: L R, LFE
Sampling rate : 48.0 KHz
Bit depth : 16 bits
Compression mode : Lossy
Stream size : 675 MiB (5%)
Language : English
Скріншоти


Джерело:
Особиста оцінка: 10 - без зайвих вагань рекомендую всім!


 Трекер:    Зареєстрований   

Завантажити / скачати фільм українською



відео для новачків



 Зареєстрований:   2013-02-10 14:45
 Розмір:   12.7 GB 
 Оцінка фільму:   6.8/10 (Голосів: 17)
   
braveboy 
Відео Гуртом - команда HD
Відео Гуртом - команда HD


З нами з: 15.06.10
Востаннє: 29.10.16
Повідомлень: 958

2013-02-10 12:31  
відключи компресію заголовків
Arsenfpu написано:
Muxing mode : Header stripping

інструкція тут http://toloka.to/t31095

скріншоти повинні бути у форматі png

Arsenfpu 
Відео Гуртом - фільмокрай
Відео Гуртом - фільмокрай


З нами з: 30.04.09
Востаннє: 08.12.16
Повідомлень: 1590

2013-02-10 14:52  
Внесено зміни. Торрент оновлено.
Дико вибачаюсь перед тими, хто вже почав качати...

LanLecuk 
Новенький


З нами з: 26.04.12
Востаннє: 24.03.16
Повідомлень: 3

2014-08-05 19:52  
Гарна роздача!
Ваш часовий пояс: GMT + 2 Години

Нова тема   Відповісти