Завантажити та скачати торренти українською


Місяць 2112 / Moon (2009) 1080р

Нові коментарі

Нова тема   Відповісти
Автор Повідомлення
PhilosophUA 
VIP


З нами з: 13.02.10
Востаннє: 30.11.16
Повідомлень: 402

2013-02-10 02:11  
Місяць 2112 / Moon (2009) 1080р

Місяць 2112 / Moon (2009) 1080р


Жанр: фантастика, трилер, психологічний, артхаус
Країна: Великобританія



Кіностудія / кінокомпанія: Liberty Films UK, Lunar Industries, Xingu Films
Режисер: Дункан Джонс
Актори: Кевін Спейсі, Сем Роквелл, Кая Скоделаріо, Метт Беррі, Малькольм Стюарт, Бенедікт Вонґ

Сюжет:
У Сема Белла добігає кінця трирічний котракт, згідно якого він самотньо жив на місячній базі, видобуваючи гелій-3 - єдиний порятунок людства від енергетичної кризи. За цей час у нього було вдосталь можливостей як обміркувати своє минуле та зроблені помилки, так і спланувати майбутнє життя - достроковий вихід на пенсію та відпочинок з дружиною і донечкою. Але за кілька тижнів до відльоту розмірене життя Сема порушується незрозумілими видіннями, а що ближчає кінець його добровільного ув'язнення, тим зрозумілішим стає той дивний факт, що у Місяця є своя думка щодо подальшої долі Белла.


Тривалість: 01:37:09
Якість: 1080p
Відео:
кодек:
розмір кадру: 1920 х 800
бітрейт: 11.2 Mб/с

Аудіо:
мова: українська
переклад: професійний дубльований
кодек: 5.1
бітрейт: 384 кб/с

Озвучення виконано:
MediaInfo
General
Unique ID : 196152975659287828473341398548395226964 (0x9391B05F0BCCD55F83D852A290327754)
Complete name : E:\torrent\[UkrDub.net]_Moon_[1080p]_BDRip_5.1.mkv
Format : Matroska
Format version : Version 4 / Version 2
File size : 7.85 GiB
Duration : 1h 37mn
Overall bit rate : 11.6 Mbps
Encoded date : UTC 2013-02-09 22:19:25
Writing application : mkvmerge v6.0.0 ('Coming Up For Air') built on Jan 20 2013 09:52:00
Writing library : libebml v1.3.0 + libmatroska v1.4.0

Video
ID : 1
Format : AVC
Format/Info : Advanced Video Codec
Format profile : [email protected]
Format settings, CABAC : Yes
Format settings, ReFrames : 5 frames
Codec ID : V_MPEG4/ISO/AVC
Duration : 1h 37mn
Bit rate : 11.2 Mbps
Width : 1 920 pixels
Height : 800 pixels
Display aspect ratio : 2.40:1
Frame rate mode : Constant
Frame rate : 23.976 fps
Color space : YUV
Chroma subsampling : 4:2:0
Bit depth : 8 bits
Scan type : Progressive
Bits/(Pixel*Frame) : 0.304
Stream size : 7.43 GiB (95%)
Writing library : core 68 r1179M 96e2229
Encoding settings : cabac=1 / ref=5 / deblock=1:-3:-3 / analyse=0x3:0x133 / me=umh / subme=9 / psy_rd=0.9:0.0 / mixed_ref=1 / me_range=32 / chroma_me=1 / trellis=2 / 8x8dct=1 / cqm=0 / deadzone=21,11 / chroma_qp_offset=-2 / threads=12 / nr=0 / decimate=1 / mbaff=0 / bframes=6 / b_pyramid=1 / b_adapt=2 / b_bias=0 / direct=1 / wpredb=1 / keyint=250 / keyint_min=25 / scenecut=40 / rc=2pass / bitrate=11187 / ratetol=1.0 / qcomp=0.60 / qpmin=10 / qpmax=51 / qpstep=4 / cplxblur=20.0 / qblur=0.5 / vbv_maxrate=50000 / vbv_bufsize=50000 / ip_ratio=1.40 / pb_ratio=1.30 / aq=1:0.90
Default : Yes
Forced : Yes

Audio
ID : 2
Format : AC-3
Format/Info : Audio Coding 3
Mode extension : CM (complete main)
Format settings, Endianness : Big
Codec ID : A_AC3
Duration : 1h 37mn
Bit rate mode : Constant
Bit rate : 384 Kbps
Channel(s) : 6 channels
Channel positions : Front: L C R, Side: L R, LFE
Sampling rate : 48.0 KHz
Bit depth : 16 bits
Compression mode : Lossy
Stream size : 267 MiB (3%)
Title : UkrDub.net
Language : Ukrainian
Default : Yes
Forced : Yes
Скріншоти







Текст читали: Роман Безверхий, Ален Бобров, Лілія Добривода, Максим Лобенко, Павло Кільдау
Робота зі звуком: Роман Безверхий
Постер: PhilosophUA

Джерело:
Особиста оцінка: 10 - без зайвих вагань рекомендую всім!


Авторський реліз (завантажувати можна без реєстрації)
 Трекер:    Зареєстрований   

Завантажити / скачати фільм українською



відео для новачків



 Зареєстрований:   2013-02-10 02:11
 Розмір:   7.85 GB 
 Оцінка фільму:   9.2/10 (Голосів: 27)
 [UkrDub.net] Місяць 2112 / Moon дубляж 1080р
   
PhilosophUA 
VIP


З нами з: 13.02.10
Востаннє: 30.11.16
Повідомлень: 402

2013-02-10 04:50  
Авторський, будь ласка.
Jack_Daniels 
VIP


З нами з: 30.07.10
Востаннє: 04.12.16
Повідомлень: 297

2013-02-11 02:26  
Дивився в кіно, фільм сподобався, але трохи неординарний, тому як кому посмакує Happy
IvanB123456 
Новенький


З нами з: 07.09.12
Востаннє: 23.11.13
Повідомлень: 11

2013-02-11 15:25  
Чому не залишили оригінальну дорожку?
PhilosophUA 
VIP


З нами з: 13.02.10
Востаннє: 30.11.16
Повідомлень: 402

2013-02-11 16:05  
IvanB123456 написано:
Чому не залишили оригінальну дорожку?

По-перще, щоб зменшити розмір файлу.
По-друге, не бачив доцільності, оскільки субтитри не додаються.

Ваш часовий пояс: GMT + 2 Години

Нова тема   Відповісти