Завантажити та скачати торренти українською


Місяць 2112 / Moon (2009) 720р

Нові коментарі

Нова тема   Відповісти
Автор Повідомлення
PhilosophUA 
VIP


З нами з: 13.02.10
Востаннє: 30.11.16
Повідомлень: 402

2013-02-10 02:06  
Місяць 2112 / Moon (2009) 720р

Місяць 2112 / Moon (2009) 720р


Жанр: фантастика, трилер, психологічний, артхаус
Країна: Великобританія



Кіностудія / кінокомпанія: Liberty Films UK, Lunar Industries, Xingu Films
Режисер: Дункан Джонс
Актори: Кевін Спейсі, Сем Роквелл, Кая Скоделаріо, Метт Беррі, Малькольм Стюарт, Бенедікт Вонґ

Сюжет:
У Сема Белла добігає кінця трирічний котракт, згідно якого він самотньо жив на місячній базі, видобуваючи гелій-3 - єдиний порятунок людства від енергетичної кризи. За цей час у нього було вдосталь можливостей як обміркувати своє минуле та зроблені помилки, так і спланувати майбутнє життя - достроковий вихід на пенсію та відпочинок з дружиною і донечкою. Але за кілька тижнів до відльоту розмірене життя Сема порушується незрозумілими видіннями, а що ближчає кінець його добровільного ув'язнення, тим зрозумілішим стає той дивний факт, що у Місяця є своя думка щодо подальшої долі Белла.


Тривалість: 01:37:09
Якість: 720р
Відео:
кодек: V_MPEG4/ISO/AVC
розмір кадру: 1280 х 528
бітрейт: 4 931 кб/с

Аудіо:
мова: українська
переклад: професійний дубльований
кодек: 5.1
бітрейт: 384 кб/с

Озвучення виконано:
MediaInfo
General
Unique ID : 207712354547286724399944406338314161546 (0x9C43F1C08A484BCD99DE2D753633CD8A)
Complete name : E:\torrent\[UkrDub.net]_Moon_[720p]_BDRip_5.1.mkv
Format : Matroska
Format version : Version 4 / Version 2
File size : 3.61 GiB
Duration : 1h 37mn
Overall bit rate : 5 315 Kbps
Movie name : UkrDub.net
Encoded date : UTC 2013-02-09 22:37:24
Writing application : mkvmerge v6.0.0 ('Coming Up For Air') built on Jan 20 2013 09:52:00
Writing library : libebml v1.3.0 + libmatroska v1.4.0

Video
ID : 1
Format : AVC
Format/Info : Advanced Video Codec
Format profile : [email protected]
Format settings, CABAC : Yes
Format settings, ReFrames : 5 frames
Codec ID : V_MPEG4/ISO/AVC
Duration : 1h 37mn
Bit rate : 4 931 Kbps
Width : 1 280 pixels
Height : 528 pixels
Display aspect ratio : 2.40:1
Frame rate mode : Constant
Frame rate : 23.976 fps
Color space : YUV
Chroma subsampling : 4:2:0
Bit depth : 8 bits
Scan type : Progressive
Bits/(Pixel*Frame) : 0.304
Stream size : 3.28 GiB (91%)
Writing library : core 79 r1342 e8501ef
Encoding settings : cabac=1 / ref=5 / deblock=1:0:0 / analyse=0x3:0x133 / me=umh / subme=7 / psy=1 / psy_rd=1.0:0.0 / mixed_ref=1 / me_range=16 / chroma_me=1 / trellis=1 / 8x8dct=1 / cqm=0 / deadzone=21,11 / chroma_qp_offset=-2 / threads=12 / nr=0 / decimate=1 / mbaff=0 / constrained_intra=0 / bframes=3 / b_pyramid=0 / b_adapt=2 / b_bias=0 / direct=1 / wpredb=1 / wpredp=2 / keyint=250 / keyint_min=25 / scenecut=40 / rc_lookahead=40 / rc=2pass / mbtree=1 / bitrate=4931 / ratetol=1.0 / qcomp=0.60 / qpmin=10 / qpmax=51 / qpstep=4 / cplxblur=20.0 / qblur=0.5 / ip_ratio=1.40 / aq=1:1.00
Default : Yes
Forced : Yes

Audio
ID : 2
Format : AC-3
Format/Info : Audio Coding 3
Mode extension : CM (complete main)
Format settings, Endianness : Big
Codec ID : A_AC3
Duration : 1h 37mn
Bit rate mode : Constant
Bit rate : 384 Kbps
Channel(s) : 6 channels
Channel positions : Front: L C R, Side: L R, LFE
Sampling rate : 48.0 KHz
Bit depth : 16 bits
Compression mode : Lossy
Stream size : 267 MiB (7%)
Title : UkrDub.net
Language : Ukrainian
Default : Yes
Forced : Yes
Скріншоти







Текст читали: Роман Безверхий, Ален Бобров, Лілія Добривода, Максим Лобенко, Павло Кільдау
Робота зі звуком: Роман Безверхий
Постер: PhilosophUA

Джерело:
Особиста оцінка: 10 - без зайвих вагань рекомендую всім!


Авторський реліз (завантажувати можна без реєстрації)
 Трекер:    Зареєстрований   

Завантажити / скачати фільм українською



відео для новачків



 Зареєстрований:   2013-02-10 02:06
 Розмір:   3.61 GB 
 Оцінка фільму:   9.2/10 (Голосів: 42)
 [UkrDub.net] Місяць 2112 / Moon дубляж 720р
   
8530 
VIP


З нами з: 27.01.09
Востаннє: 23.11.16
Повідомлень: 494

2013-02-10 08:38  
так собі фільм, а кінцівка все поставила на місця....
Читати після переглядуHappy
його клонували, якщо незраджує память

Nikson 
VIP


З нами з: 12.01.10
Востаннє: 07.12.16
Повідомлень: 657

2013-02-10 08:53  
8530
а я хотів було подивитись а ви розказали весь фільм....

8530 
VIP


З нами з: 27.01.09
Востаннє: 23.11.16
Повідомлень: 494

2013-02-10 09:15  
фільм варто передивитись...не зволікайте! я дивився давно, міг і попутати..
BOOGud 
VIP


З нами з: 06.03.12
Востаннє: 11.11.16
Повідомлень: 907

2013-02-10 10:49  
8530
ну ваще блін дякую на доброму слові!
могли б і під спойлер взяти!
давайте я зара почну розказувати кінцівки всіх фільмів яких ви не бачили

pyatachok 
Координатор літератури


З нами з: 30.01.10
Востаннє: 07.12.16
Повідомлень: 1337

2013-02-10 10:59  
Виправив повідомлення 8530, а також ті, де була цитата з розкриттям кінцівки фільму.

Додано через 2 хвилини 58 секунд:

PhilosophUA написано:
Якість:

Допишіть 720р ... зараз сам поправлю.

8530 
VIP


З нами з: 27.01.09
Востаннє: 23.11.16
Повідомлень: 494

2013-02-10 13:17  
BOOGud
Ну пробачте...

hellforces 
VIP


З нами з: 25.06.08
Востаннє: 11.11.16
Повідомлень: 1556

2013-02-10 23:26  
нормальне кіно 8\10
озвучка хороша, от тільки багато звуків вирізаних

Virake 
Localize Team
Localize Team


З нами з: 07.07.09
Востаннє: 07.12.16
Повідомлень: 4063

2013-02-16 01:00  
неймовірний фільм... ніколи раніше такого не бачив.
Coryffaeus 
Новенький


З нами з: 23.05.13
Востаннє: 07.10.16
Повідомлень: 5

2014-12-06 19:21  
Фільм гарний, але дублювання, на жаль, зовсім не сподобалось. Головний герой промовляє усі репліки із практично однаковою інтонацією та ще й із якоюсь натугою. Виникло величезне бажання перемкнутись на оригінал, особливо знаючи, що робота озвучує Кевін Спейсі. Шкода, що англійської доріжки немає в жодній версії на сайті.
Virake 
Localize Team
Localize Team


З нами з: 07.07.09
Востаннє: 07.12.16
Повідомлень: 4063

2014-12-06 19:53  
Coryffaeus, неправда. є такі доріжки.
Косячок справжній 
VIP


З нами з: 29.02.12
Востаннє: 07.12.16
Повідомлень: 658

2015-02-08 15:37  
Не дарма згаяний час.
prostranto 
Новенький


З нами з: 24.03.10
Востаннє: 22.07.16
Повідомлень: 18

2015-02-15 21:44  
Ідея цікава - втілення гавно.
Косячок справжній 
VIP


З нами з: 29.02.12
Востаннє: 07.12.16
Повідомлень: 658

2015-02-15 23:20  
prostranto написано:
Ідея цікава - втілення гавно.

Це можна ось про цей фільм сказати
http://toloka.to/t58869

Soturi 
Свій


З нами з: 23.01.15
Востаннє: 03.04.15
Повідомлень: 131

2015-02-16 00:45  
prostranto написано:
Ідея цікава - втілення гавно.

Звісно. А "Трансформери 3: Темний бік Місяця" - шидевр.
Тут у втіленні весь смак кіна, а ви... Мабуть, так і про "2001: Космічну Одіссею" Кубрика скажете. Sad (2)

Virake 
Localize Team
Localize Team


З нами з: 07.07.09
Востаннє: 07.12.16
Повідомлень: 4063

2015-02-17 05:15  
prostranto, насправді втілення першокласне. а ідея фільму розкривається вже десь ближче до кінця, тож на решту фільму вона мало впливає.
K2 
Поважний учасник


З нами з: 02.11.08
Востаннє: 07.12.16
Повідомлень: 158

2015-05-22 22:30  
Та якого біса спойлерить, 8530!
Це ж треба було зайти коменти почитати(.

vovkl 
Новенький


З нами з: 14.02.13
Востаннє: 07.12.16
Повідомлень: 7

2015-12-18 09:59  
Складається враження, що багато осіб доклали рук щоб "вбити" цей фільм - недолугі сценаристи, режисери, артисти та ті, хто озвучував українською. Вони досягнули свого результату. А якщо ідею фільму можна у двох словах описати і після його завершення виникає лише бажання якомога швидше видалити і забути - то це не фільм.
INTER-FAN 
Свій


З нами з: 25.01.10
Востаннє: 06.12.16
Повідомлень: 60

2016-10-21 21:31  
Coryffaeus
Абсолютно згоден. Дубляж, на жаль, не витримує жодної критики. Шкода дуже. Добре хоч на одному з релізів є оригінальна доріжка.

Ваш часовий пояс: GMT + 2 Години

Нова тема   Відповісти