Завантажити та скачати торренти українською


Лашкаво прошимо / Bienvenue chez les Ch'tis (2008) 720p Ukr/Fra | Sub Fra

Нові коментарі

Нова тема   Відповісти
Автор Повідомлення
chaoscor 
Свій


З нами з: 17.10.10
Востаннє: 03.12.16
Повідомлень: 73

2013-02-09 23:12  
Лашкаво прошимо / Bienvenue chez les Ch'tis (2008) 720p Ukr/Fra | Sub Fra

Лашкаво прошимо / Bienvenue chez les Ch'tis (2008) 720p Ukr/Fra | Sub Fra


Жанр: комедія
Країна: Франція



Режисер: Дені Бун
Актори: Кад Мерад, Дені Бун, Зое Фелікс, Енн Марівін, Філіп Дюкен, Гай Леклюіз, Лайн Рено, Мішель Галабрю, Стефан Фрейсс, Патрік Бос, Жером Коммандер

Сюжет:
Філіп Абрамс, начальник поштового відділення на півдні Франції в Салон-де-Прованс робить все для того, щоб бути переведеним по службі в Кассис, райський куточок поблизу Марселя. Проте всі його старання і мрії руйнуються, коли за незначне службове порушення його на два роки переводять на північ до Берга, неподалік Дюнкерка.  Для людей з півдня Франції, переповнених стереотипами, північ - це жах, полярний регіон, населений грубими істотами, що розмовляють незрозумілою мовою. На свій великий подив, Філіп Абрамс знаходить там чарівне місце, теплу команду, гостинних людей і нових друзів.


Тривалість: 01:46:00
Якість:
Відео:
кодек:
розмір кадру: 1280 х 546
бітрейт: 6559 кб/с

Аудіо # 1:
мова: українська
переклад: двоголосий закадровий
кодек: 2.0
бітрейт: 192 кб/с
Джерело озвучення:

доріжку взято з релізу Gelios

Аудіо # 2:
мова: французька
переклад: оригінал
кодек: 5.1
бітрейт: 1510 кб/с

Субтитри:
мова: французька
тип: програмні (м'які)
формат: *.srt
MediaInfo
N:\проекти\Bienvenue chez les Ch'tis 2008 720p UkrFra Sub Fra.mkv
General
Complete name : N:\проекти\Bienvenue chez les Ch'tis 2008 720p UkrFra Sub Fra.mkv
Format : Matroska
File size : 6.12 GiB
Duration : 1h 46mn
Overall bit rate : 8 261 Kbps
Movie name : Welcome to the Sticks (2008) - Release for HDCLUB
Encoded date : UTC 2013-02-09 13:16:37
Writing application : mkvmerge v5.2.1 ('A Far Off Place') built on Jan 2 2012 23:21:10
Writing library : libebml v1.2.3 + libmatroska v1.3.0
Video #1
ID : 1
Format : AVC
Format/Info : Advanced Video Codec
Format profile : [email protected]
Format settings, CABAC : Yes
Format settings, ReFrames : 11 frames
Muxing mode : Container [email protected]
Codec ID : V_MPEG4/ISO/AVC
Duration : 1h 46mn
Bit rate : 6 559 Kbps
Width : 1 280 pixels
Height : 546 pixels
Display aspect ratio : 2.35:1
Frame rate : 24.000 fps
Color space : YUV
Chroma subsampling : 4:2:0
Bit depth : 8 bits
Scan type : Progressive
Bits/(Pixel*Frame) : 0.391
Stream size : 4.74 GiB (77%)
Title : Release for HDCLUB
Writing library : core 100 r1659 57b2e56
Encoding settings : cabac=1 / ref=11 / deblock=1:-3:-3 / analyse=0x3:0x113 / me=umh / subme=9 / psy=1 / psy_rd=1.00:0.00 / mixed_ref=1 / me_range=32 / chroma_me=1 / trellis=2 / 8x8dct=1 / cqm=0 / deadzone=21,11 / fast_pskip=0 / chroma_qp_offset=-2 / threads=12 / sliced_threads=0 / nr=0 / decimate=0 / interlaced=0 / constrained_intra=0 / bframes=10 / b_pyramid=2 / b_adapt=2 / b_bias=0 / direct=1 / weightb=1 / open_gop=0 / weightp=2 / keyint=250 / keyint_min=25 / scenecut=40 / intra_refresh=0 / rc_lookahead=60 / rc=2pass / mbtree=0 / bitrate=6559 / ratetol=1.0 / qcomp=0.60 / qpmin=10 / qpmax=51 / qpstep=4 / cplxblur=20.0 / qblur=0.5 / vbv_maxrate=50000 / vbv_bufsize=62500 / ip_ratio=1.40 / pb_ratio=1.30 / aq=1:0.80 / nal_hrd=none
Language : English
Audio #2
ID : 2
Format : AC-3
Format/Info : Audio Coding 3
Mode extension : CM (complete main)
Codec ID : A_AC3
Duration : 1h 46mn
Bit rate mode : Constant
Bit rate : 192 Kbps
Channel(s) : 2 channels
Channel positions : Front: L R
Sampling rate : 48.0 KHz
Bit depth : 16 bits
Stream size : 146 MiB (2%)
Language : Ukrainian
Audio #3
ID : 3
Format :
Format/Info : Digital Theater Systems
Codec ID : A_DTS
Duration : 1h 46mn
Bit rate mode : Constant
Bit rate : 1 510 Kbps
Channel(s) : 6 channels
Channel positions : Front: L C R, Side: L R, LFE
Sampling rate : 48.0 KHz
Bit depth : 16 bits
Stream size : 1.12 GiB (18%)
Title : 5.1 @ 1536 kbps
Language : French
Text #4
ID : 4
Format : UTF-8
Codec ID : S_TEXT/UTF8
Codec ID/Info : UTF-8 Plain Text
Language : French
Скріншоти


Джерело: &
Особиста оцінка: 10 - без зайвих вагань рекомендую всім!


 Трекер:    Зареєстрований   

Завантажити / скачати фільм українською



відео для новачків



 Зареєстрований:   2013-02-09 23:12
 Розмір:   6.12 GB 
 Оцінка фільму:   9.9/10 (Голосів: 26)
   
Інші релізи
Zelenka93 
Частий відвідувач


З нами з: 12.02.12
Востаннє: 07.12.16
Повідомлень: 29

2015-05-25 20:36  
Прекраснісінький фільм! Українська озвучка - неперевершена!
SebiVise 
Частий відвідувач


З нами з: 16.08.10
Востаннє: 07.12.16
Повідомлень: 48

2015-07-30 19:19  
Справді хороший фільм. Якщо хтось міг би порадити подібні комедії (без зайвої вульгарності і тупості) був би вельми вдячний.
EduardGol 
Поважний учасник


З нами з: 03.10.13
Востаннє: 08.12.16
Повідомлень: 162

2015-08-09 17:48  
Черговий чудовий французький фільм! Переклад і озвучка - неперевершені.
Морж 
Частий відвідувач


З нами з: 23.01.09
Востаннє: 04.12.16
Повідомлень: 31

2015-08-11 07:57  
Непоганий фільм, тільки можна було б нашим перекладачам переїжджати на поліський наприклад діалект, бо карпатський замість будь-якої народної говірки вже трохи задовбав.
Maters 
VIP


З нами з: 27.03.12
Востаннє: 08.12.16
Повідомлень: 1162

2015-09-05 13:36  
Морж
Це не карпатський діалект. Так говорять на Галичині!

Фільм кльовий! Дякую!

ultramuha 
Частий відвідувач


З нами з: 22.09.13
Востаннє: 04.12.16
Повідомлень: 26

2015-09-12 18:20  
Прекрасній фільм!
olthik 
Частий відвідувач


З нами з: 02.03.16
Востаннє: 08.12.16
Повідомлень: 33

2016-05-24 21:49  
Та він французькою, що ви пишете, що озвучка українська?
Ваш часовий пояс: GMT + 2 Години

Нова тема   Відповісти