Завантажити та скачати торренти українською


VA - Третя чарка за жінок (2005) [FLAC] | Pop Folk

Нові коментарі

Нова тема   Відповісти
Автор Повідомлення
ssTAss 
Модератор музики


З нами з: 05.07.08
Востаннє: 06.12.16
Повідомлень: 10946

2013-02-09 21:58  
VA - Третя чарка за жінок (2005) [FLAC] | Pop Folk

VA - Третя чарка за жінок (2005) [FLAC] | Pop Folk


Стиль: Pop Folk
Країна: Україна
Видавець: NAC
Виконавці:
VA
Пісні:
    01. гурт "Експрес" - Чарка вина
    02. "Справжні козаки" - Я пив і ти пила
    03. В.Кукоба - Гоп ца ца
    04. гурт "Бердичів" - Ой, сварились батько
    05. Т.Костюк - В неділю ранесенько
    06. гурт "Барви Поділля" - Циганочка-морганочка
    07. гурт "Водовари" - Полька
    08. гурт "Барви Поділля" - На тім вигоні
    09. В.Кукоба - Українське пиво
    10. гурт "Бердичів" - Багата наречена
    11. гурт "Барви Поділля" - Ой, устану ранесенько
    12. гурт Експрес - Третя чарка за жінок
log
Exact Audio Copy V1.0 beta 3 from 29. August 2011

Отчёт EAC об извлечении, выполненном 30. декабря 2012, 20:45

VA / Третя чарка за жінок

Дисковод: TSSTcorpCDDVDW TS-L633J Adapter: 0 ID: 1

Режим чтения : Достоверность
Использование точного потока : Да
Отключение кэша аудио : Да
Использование указателей C2 : Нет

Коррекция смещения при чтении : 6
Способность читать области Lead-in и Lead-out : Нет
Заполнение пропущенных сэмплов тишиной : Да
Удаление блоков с тишиной в начале и конце : Нет
При вычислениях CRC использовались нулевые сэмплы : Да
Интерфейс : Встроенный Win32-интерфейс для Win NT/2000

Выходной формат : Пользовательский кодировщик
Выбранный битрейт : 1024 kBit/s
Качество : Высокий
Добавление ID3-тега : Нет
Утилита сжатия : C:\Program Files (x86)\Exact Audio Copy\FLAC\FLAC.EXE
Дополнительные параметры : -8 -V -T "ARTIST=%artist%" -T "TITLE=%title%" -T "ALBUM=%albumtitle%" -T "DATE=%year%" -T "TRACKNUMBER=%tracknr%" -T "GENRE=%genre%" -T "COMMENT=%comment%" -T "BAND=%albuminterpret%" -T "ALBUMARTIST=%albuminterpret%" -T "COMPOSER=%composer%" %haslyrics%--tag-from-file=LYRICS="%lyricsfile%"%haslyrics% -T "DISCNUMBER=%cdnumber%" -T "TOTALDISCS=%totalcds%" -T "TOTALTRACKS=%numtracks%" %hascover%--picture="%coverfile%"%hascover% %source% -o %dest%

TOC извлечённого CD

Трек | Старт | Длительность | Начальный сектор | Конечный сектор
---------------------------------------------------------------------
1 | 0:00.00 | 3:11.37 | 0 | 14361
2 | 3:11.37 | 2:58.02 | 14362 | 27713
3 | 6:09.39 | 4:46.50 | 27714 | 49213
4 | 10:56.14 | 2:50.16 | 49214 | 61979
5 | 13:46.30 | 4:11.66 | 61980 | 80870
6 | 17:58.21 | 3:23.38 | 80871 | 96133
7 | 21:21.59 | 3:29.35 | 96134 | 111843
8 | 24:51.19 | 2:45.62 | 111844 | 124280
9 | 27:37.06 | 3:09.29 | 124281 | 138484
10 | 30:46.35 | 3:01.33 | 138485 | 152092
11 | 33:47.68 | 3:04.10 | 152093 | 165902
12 | 36:52.03 | 2:57.62 | 165903 | 179239

Характеристики диапазона извлечения и сообщения об ошибках

Выбранный диапазон

Имя файла D:\VA - Третя чарка за жінок.2005\VA - Третя чарка за жінок.wav

Пиковый уровень 100.0 %
Скорость извлечения 2.8 X
Качество диапазона 100.0 %
CRC теста FD9DF625
CRC копии FD9DF625
Копирование... OK

Ошибок не произошло

AccurateRip: сводка

Трек 1 отсутствует в базе данных
Трек 2 отсутствует в базе данных
Трек 3 отсутствует в базе данных
Трек 4 отсутствует в базе данных
Трек 5 отсутствует в базе данных
Трек 6 отсутствует в базе данных
Трек 7 отсутствует в базе данных
Трек 8 отсутствует в базе данных
Трек 9 отсутствует в базе данных
Трек 10 отсутствует в базе данных
Трек 11 отсутствует в базе данных
Трек 12 отсутствует в базе данных

Ни одного трека нет в базе AccurateRip

Конец отчёта

==== Контрольная сумма отчёта 00DDDD5A8A205D65350024E3E067E368BFF7125F1ACFBDBFE22A48363A9FFB63 ====
fooCDtect
fooCDtect - foobar2000 + auCDtect, baralgin.

auCDtect: CD records authenticity detector, version 0.8.2
Copyright (c) 2004 Oleg Berngardt. All rights reserved.
Copyright (c) 2004 Alexander Djourik. All rights reserved.

mode: 0

===========================================
Track: 01 - Чарка вина
Quality: CDDA 100%
===========================================
Track: 02 - Я пив і ти пила
Quality: CDDA 100%
===========================================
Track: 03 - Гоп ца ца
Quality: CDDA 100%
===========================================
Track: 04 - Ой,сварились батько
Quality: CDDA 100%
===========================================
Track: 05 - В неділю ранесенько
Quality: CDDA 100%
===========================================
Track: 06 - Циганочка-морганочка
Quality: CDDA 100%
===========================================
Track: 07 - Полька
Quality: CDDA 100%
===========================================
Track: 08 - На тім вигоні
Quality: CDDA 100%
===========================================
Track: 09 - Українське пиво
Quality: CDDA 100%
===========================================
Track: 10 - Багата наречена
Quality: CDDA 100%
===========================================
Track: 11 - Ой,устану ранесенько
Quality: CDDA 100%
===========================================
Track: 12 - Третя чарка за жінок
Quality: CDDA 100%
===========================================
Тривалість: 00:39:50
Мова: українська
Аудіо-кодек: FLAC
Бітрейт: 1012 кб/с
Джерело: рутрекер (автор ріпу 40years)
Додаткова інформація:
Сподіваюся, ніхто не чекає почути на цій збірці весільних пісень ті самі пісні, які колись виконувались на традиційному українському весіллі. Це – збірка цілком сучасна. Хоча, мушу визнати, більшість пісень тут – народні. Але не в автентичному, звісно, виконанні. Саме завдяки цьому збірку можна слухати не тільки під час весілля, а й під час будь-якого масового вживання всередину спиртних напоїв. Втім, не будь-якого. Якщо планується вечір сумних спогадів, чи поминки за втраченим майбутнім, варто підшукати щось інше. Бо з усмішкою на вустах, залишками салату у вусах, у швидкому танку сумувати буде дещо незручно, а інших варіантів ця збірка не пропонує. Вибачайте. Або не вибачайте, а радійте – чого-чого, а такого товару в нас завжди було багато, тож вистачить на всіх.
УМКА


Якщо Ви справді бажаєте підтримати українське - після прослуховування, якщо музика вам сподобалась,
придбайте ліцензійний диск.
Підтримаймо вітчизняних виконавців!


Срібний реліз (на рейтинг впливає 50% завантаженого)
 Трекер:    Зареєстрований   

Завантажити / скачати українську музику



відео для новачків



 Зареєстрований:   2013-02-09 21:58
 Розмір:   299 MB 
 Оцінка музики:   6.6/10 (Голосів: 8)
   
Ваш часовий пояс: GMT + 2 Години

Нова тема   Відповісти