Завантажити та скачати торренти українською


Планета ідіотів / Idiocracy (2006) 1080p Ukr/Eng

Нові коментарі

Нова тема   Відповісти
Автор Повідомлення
Sando7 
Відео Гуртом - запис з ТБ
Відео Гуртом - запис з ТБ


З нами з: 04.05.09
Востаннє: 03.12.16
Повідомлень: 835

2013-02-04 22:33  
Планета ідіотів / Idiocracy (2006) 1080p Ukr/Eng

Планета ідіотів / Idiocracy (2006) 1080p Ukr/Eng

Альтернативні постери

Планета ідіотів / Idiocracy (2006) 1080p Ukr/Eng
Планета ідіотів / Idiocracy (2006) 1080p Ukr/Eng

Жанр: фантастика, комедія, пригоди
Країна: США



Кіностудія / кінокомпанія: 20th Century Fox
Режисер: Майк Джадж
Актори: Люк Вілсон, Майя Рудольф, Декс Шепард, Террі Крюс, Ентоні Кампос, Девід Герман...

Сюжет:
Рядового Джо Бауерса Пентагон вибирає для участі в надсекретній програмі по гібернації людей. Провівши в сплячці п'ятсот років, він пробуджується і потрапляє в цивілізацію, де інтелектуальний рівень людей набагато нижче того, яким володіє він. У підсумку Джо виявляється найрозумнішою людиною на планеті ...


Тривалість: 01:24:12
Якість: 1080p
Відео:
кодек:
розмір кадру: 1920 х 1080
бітрейт: 5149 кб/с

Аудіо # 1:
мова: українська
переклад: двоголосий закадровий
кодек: 2.0
бітрейт: 256 кб/с

Аудіо # 2:
мова: англійська
переклад: оригінал
кодек: 5.1
бітрейт: 384 кб/с

Джерело озвучення:
MediaInfo

General
Unique ID : 207232384935004820686564264595770262546 (0x9BE7816C55C21C9EBC836F6A88AF4412)
Complete name : C:\Users\sando7\Desktop\Idiocracy (2006) [Ukr & Eng] 1080p[Hurtom].mkv
Format : Matroska
Format version : Version 1
File size : 3.47 GiB
Duration : 1h 24mn
Overall bit rate : 5 907 Kbps
Encoded date : UTC 2013-02-04 20:12:30
Writing application : mkvmerge v2.4.1 ('Use Me') built on Dec 5 2008 18:30:05
Writing library : libebml v0.7.7 + libmatroska v0.8.1

Video
ID : 1
Format : AVC
Format/Info : Advanced Video Codec
Format profile : [email protected]
Format settings, CABAC : Yes
Format settings, ReFrames : 4 frames
Codec ID : V_MPEG4/ISO/AVC
Duration : 1h 24mn
Bit rate : 5 149 Kbps
Width : 1 920 pixels
Height : 1 080 pixels
Display aspect ratio : 16:9
Frame rate mode : Constant
Frame rate : 23.976 fps
Color space : YUV
Chroma subsampling : 4:2:0
Bit depth : 8 bits
Scan type : Progressive
Bits/(Pixel*Frame) : 0.104
Stream size : 3.03 GiB (87%)
Language : English
Default : Yes
Forced : No
Color primaries : BT.709
Transfer characteristics : BT.709
Matrix coefficients : BT.709

Audio #1
ID : 2
Format : AC-3
Format/Info : Audio Coding 3
Mode extension : CM (complete main)
Format settings, Endianness : Big
Codec ID : A_AC3
Duration : 1h 24mn
Bit rate mode : Constant
Bit rate : 256 Kbps
Channel(s) : 2 channels
Channel positions : Front: L R
Sampling rate : 48.0 KHz
Bit depth : 16 bits
Compression mode : Lossy
Delay relative to video : 2s 989ms
Stream size : 154 MiB (4%)
Title : 1+1
Language : Ukrainian
Default : Yes
Forced : No

Audio #2
ID : 3
Format : AC-3
Format/Info : Audio Coding 3
Mode extension : CM (complete main)
Format settings, Endianness : Big
Codec ID : A_AC3
Duration : 1h 24mn
Bit rate mode : Constant
Bit rate : 384 Kbps
Channel(s) : 6 channels
Channel positions : Front: L C R, Side: L R, LFE
Sampling rate : 48.0 KHz
Bit depth : 16 bits
Compression mode : Lossy
Stream size : 231 MiB (7%)
Language : English
Default : No
Forced : No

Menu
00:00:00.000 : en:Main Titles/New Evolution
00:03:22.000 : en:Extremely Average Joe Bauers
00:07:37.000 : en:The Human Hibernation Project
00:10:11.000 : en:Garbage
00:13:45.000 : en:A Whole New World
00:19:11.000 : en:Retarded Justice
00:25:08.000 : en:Identification and Intelligence
00:29:42.000 : en:Fugitives
00:35:58.000 : en:"How Does Time Travel Work?"
00:39:52.000 : en:The Smartest Guy in the World
00:46:08.000 : en:Secretary Not Sure
00:52:12.000 : en:Water
00:56:43.000 : en:Revolution
01:00:23.000 : en:Rehabilitation
01:06:43.000 : en:Joe's Plea
01:10:54.000 : en:Pardon
01:12:29.000 : en:Staying Home
01:15:54.000 : en:The Time Masheen
01:16:49.000 : en:A New Era
01:19:01.000 : en:End Titles


за сиру доріжку подяка пану ratbol
Джерело:
Особиста оцінка: 8 - мені сподобалося


 Трекер:    Зареєстрований   

Завантажити / скачати фільм українською



відео для новачків



 Зареєстрований:   2013-02-04 22:33
 Розмір:   3.47 GB 
 Оцінка фільму:   9.8/10 (Голосів: 18)
   
Ubub 
Новенький


З нами з: 20.01.12
Востаннє: 03.12.16
Повідомлень: 24

2013-03-31 13:31  
фільм дуже смішний)
Can70 
Новенький


З нами з: 17.03.12
Востаннє: 09.08.16
Повідомлень: 7

2013-04-02 00:24  
Ввижається мені сатирою сьогодення, а не поглядом в майбутнє.
Headbanger 
Частий відвідувач


З нами з: 10.07.10
Востаннє: 01.12.16
Повідомлень: 31

2014-11-04 10:46  
Поверніться хтось на роздачу будь-ласка Happy
Ваш часовий пояс: GMT + 2 Години

Нова тема   Відповісти