Завантажити та скачати торренти українською


Вихід Дракона / Enter The Dragon (1973) 1080p 2xUkr/Eng | Sub Eng

Нові коментарі

Нова тема   Відповісти
Автор Повідомлення
Anonymous 







2013-02-04 15:39  
Вихід Дракона / Enter The Dragon (1973) 1080p 2xUkr/Eng | Sub Eng



Українізовані та альтернативні обкладинки та постери








повнорозмірні зображення відкриються по кліку (з натиснутим CTRL чи кліком середньою кнопкою мишки - у іншій вкладці)


Жанр: бойовик, трилер, драма, кримінальний
Країна: США, Гонконг



Кіностудія / кінокомпанія: Concord Productions Inc., Sequoia Productions, Warner Bros. Pictures Co.
Режисер: Роберт Клауз
Актори: Брюс Лі / Bruce Lee, Джон Сексон / John Saxon, К'єнь Ши / Kien Shih, Ана Капрі / Ahna Capri, Анжела Мао / Angela Mao, Джим Келлі / Jim Kelly, Боло Йенг / Bolo Yeung, Роберт Волл / Robert Wall, Саммо Кам-Бо Хунг / Sammo Kam-Bo Hung, Джекі Чан / Jackie Chan та інші

Сюжет:
Його люта манера бою не знала собі рівних. Його бойовий дух був неприборканий. Хоча пройшло вже багато років з моменту його ранньої смерті, Брюс Лі залишається як і раніше найяскравішою зіркою бойових мистецтв. 'Вихід Дракона' - останній з фільмів, у яких знявся легендарний Брюс Лі. Саме на зйомках цього фільму оператори були змушені користуватися спеціальною апаратурою, тому що звичайні кінокамери не встигали зафіксувати блискавичний удар Дракона.
Події переносять нас на острів, перетворений у фортецю ватажком бойовиків, що відкрили там школу бойових мистецтв. Але та школа була лише ширмою, що приховувала контрабандний бізнес. Сюди й проникає герой Брюса Лі і стає учасником жорстокого турніру - захоплюючого видовища, що вібрало в себе сплав карате, дзюдо, теквондо, тайцзицюань у постановці самого Майстра.


Рейтинг MPAA: R - особам до 17 років обов'язкова присутність батьків або дорослого опікуна
Вікова категорія: 16+

Тривалість: 01:42:33
Якість: 1080p
Відео:
кодек:
розмір кадру: 1912x808
бітрейт: 9552 кбіт/с

Аудіо # 1:
мова: українська
переклад: багатоголосий закадровий
ролі озвучили: Михайло Жонін, Людмила Ардельян та ще один чоловічий голос.
кодек: 2.0
бітрейт: 192 кбіт/с

Аудіо # 2:
мова: українська
переклад: багатоголосий закадровий
кодек: 2.0
бітрейт: 192 кбіт/с
примітка: перші півгодини доріжки втрачено - вставка ictv

Аудіо # 3:
мова: англійська
переклад: оригінал
кодек: 5.1
бітрейт: 448 кб/с

Субтитри:
мова: англійська
тип: програмні (м'які)
формат: *.srt

Збережено оригінальні розділи, як на Blu-ray
MediaInfo та log
Код:
General
Unique ID                   : 203327510722889485060369538120590024418 (0x98F77442A4A206F380F59C0C624BDEE2)
Complete name               : Enter The Dragon (1973) [2xUkr,Eng sub.Eng] 1080p [Hurtom].mkv
Format                      : Matroska
Format version              : Version 4 / Version 2
File size                   : 7.44 GiB
Duration                    : 1h 42mn
Overall bit rate            : 10.4 Mbps
Movie name                  : Вихід Дракона / Enter The Dragon (1973) [2xUkr,Eng sub.Eng] 1080p [Hurtom]
Encoded date                : UTC 2015-05-31 10:19:16
Writing application         : mkvmerge v7.9.0 ('Birds') 64bit
Writing library             : libebml v1.3.1 + libmatroska v1.4.2
Attachements                : cover.jpg
DURATION                    : 01:42:33.088000000
NUMBER_OF_FRAMES            : 192284
NUMBER_OF_BYTES             : 147674112
_STATISTICS_WRITING_APP     : mkvmerge v7.9.0 ('Birds') 64bit
_STATISTICS_WRITING_DATE_UT : 2015-05-31 10:19:16
_STATISTICS_TAGS            : BPS DURATION NUMBER_OF_FRAMES NUMBER_OF_BYTES

Video
ID                          : 1
Format                      : AVC
Format/Info                 : Advanced Video Codec
Format profile              : [email protected]
Format settings, CABAC      : Yes
Format settings, ReFrames   : 5 frames
Codec ID                    : V_MPEG4/ISO/AVC
Duration                    : 1h 42mn
Bit rate                    : 9 552 Kbps
Width                       : 1 912 pixels
Height                      : 808 pixels
Display aspect ratio        : 2.35:1
Frame rate mode             : Constant
Frame rate                  : 23.976 fps
Color space                 : YUV
Chroma subsampling          : 4:2:0
Bit depth                   : 8 bits
Scan type                   : Progressive
Bits/(Pixel*Frame)          : 0.258
Stream size                 : 6.70 GiB (90%)
Title                       : Вихід Дракона / Enter The Dragon / Выход Дракона (1973) 1080p [Alex260680]
Writing library             : core 129 r2245 bc13772
Encoding settings           : cabac=1 / ref=5 / deblock=1:-1:-1 / analyse=0x3:0x113 / me=umh / subme=11 / psy=1 / psy_rd=1.00:0.10 / mixed_ref=1 / me_range=32 / chroma_me=1 / trellis=2 / 8x8dct=1 / cqm=0 / deadzone=21,11 / fast_pskip=0 / chroma_qp_offset=-3 / threads=12 / lookahead_threads=2 / sliced_threads=0 / nr=0 / decimate=0 / interlaced=0 / bluray_compat=0 / constrained_intra=0 / bframes=5 / b_pyramid=2 / b_adapt=2 / b_bias=0 / direct=3 / weightb=1 / open_gop=0 / weightp=2 / keyint=240 / keyint_min=23 / scenecut=40 / intra_refresh=0 / rc=2pass / mbtree=0 / bitrate=9552 / ratetol=1.0 / qcomp=0.60 / qpmin=0 / qpmax=69 / qpstep=4 / cplxblur=20.0 / qblur=0.5 / ip_ratio=1.40 / pb_ratio=1.30 / aq=1:0.90
Language                    : English
Default                     : Yes
Forced                      : No

Audio #1
ID                          : 2
Format                      : AC-3
Format/Info                 : Audio Coding 3
Mode extension              : CM (complete main)
Format settings, Endianness : Big
Codec ID                    : A_AC3
Duration                    : 1h 42mn
Bit rate mode               : Constant
Bit rate                    : 192 Kbps
Channel(s)                  : 2 channels
Channel positions           : Front: L R
Sampling rate               : 48.0 KHz
Bit depth                   : 16 bits
Compression mode            : Lossy
Stream size                 : 141 MiB (2%)
Title                       : MVO ICTV 2.0 192 kbps [Hurtom-NemoInFire,dvorsky]
Language                    : Ukrainian
Default                     : Yes
Forced                      : No

Audio #2
ID                          : 3
Format                      : AC-3
Format/Info                 : Audio Coding 3
Mode extension              : CM (complete main)
Format settings, Endianness : Big
Codec ID                    : A_AC3
Duration                    : 1h 42mn
Bit rate mode               : Constant
Bit rate                    : 192 Kbps
Channel(s)                  : 2 channels
Channel positions           : Front: L R
Sampling rate               : 48.0 KHz
Bit depth                   : 16 bits
Compression mode            : Lossy
Stream size                 : 141 MiB (2%)
Title                       : MVO [1+1,VHS] 2.0 192 kbps [Hurtom-NemoInFire,boltendahl]
Language                    : Ukrainian
Default                     : No
Forced                      : No

Audio #3
ID                          : 4
Format                      : AC-3
Format/Info                 : Audio Coding 3
Mode extension              : CM (complete main)
Format settings, Endianness : Big
Codec ID                    : A_AC3
Duration                    : 1h 42mn
Bit rate mode               : Constant
Bit rate                    : 448 Kbps
Channel(s)                  : 6 channels
Channel positions           : Front: L C R, Side: L R, LFE
Sampling rate               : 48.0 KHz
Bit depth                   : 16 bits
Compression mode            : Lossy
Stream size                 : 329 MiB (4%)
Title                       : Original 5.1 448 kbps
Language                    : English
Default                     : No
Forced                      : No

Text
ID                          : 5
Format                      : UTF-8
Codec ID                    : S_TEXT/UTF8
Codec ID/Info               : UTF-8 Plain Text
Language                    : English
Default                     : No
Forced                      : No

Menu
00:00:00.000                : en:Chapter1
00:02:29.316                : en:Chapter2
00:05:28.495                : en:Chapter3
00:08:26.338                : en:Chapter4
00:10:40.639                : en:Chapter5
00:14:39.211                : en:Chapter6
00:20:16.213                : en:Chapter7
00:25:08.338                : en:Chapter8
00:27:40.991                : en:Chapter9
00:31:34.057                : en:Chapter10
00:34:03.875                : en:Chapter11
00:39:00.170                : en:Chapter12
00:41:53.677                : en:Chapter13
00:45:21.052                : en:Chapter14
00:46:35.458                : en:Chapter15
00:50:48.210                : en:Chapter16
00:55:11.474                : en:Chapter17
00:57:56.306                : en:Chapter18
01:00:36.132                : en:Chapter19
01:05:27.922                : en:Chapter20
01:09:00.301                : en:Chapter21
01:11:25.279                : en:Chapter22
01:16:01.055                : en:Chapter23
01:20:09.970                : en:Chapter24
01:25:09.104                : en:Chapter25
01:28:51.658                : en:Chapter26
01:31:37.158                : en:Chapter27
01:35:14.542                : en:Chapter28
01:40:24.018                : en:Chapter29


Код:
[info]: frame I:1009 Avg QP:18.88 size:167360
[info]: frame P:33137 Avg QP:21.27 size: 83189
[info]: frame B:113381 Avg QP:22.99 size: 38993




Джерела та подяки: &
ріп відео - alex260680 (рутор); українські доріжки - NemoInFire - зведення, dvorsky - запис з ТБ (1), boltendahl - запис VHS (2); українізований постер - somnambula; фільмографії акторів та інформація про озвучення - Віктор (всі - Гуртом).

Особиста оцінка: 8 - мені сподобалося


31.05.2015 Реліз оновлено! Додано озвучення від 1+1, замінено озвучення від ICTV з нового запису

ЗАЛИШАЙТЕСЬ ЯКОМОГА ДОВШЕ НА РОЗДАЧІ!

СКАЧАВ САМ - ДАЙ СКАЧАТИ ІНШИМ


Срібний реліз (на рейтинг впливає 50% завантаженого)
 Трекер:    Зареєстрований   

Завантажити / скачати фільм українською



відео для новачків



 Зареєстрований:   2015-05-31 14:05
 Розмір:   7.44 GB 
 Оцінка фільму:   6/10 (Голосів: 25)
   
Інші релізи
   Вихід Дракона / Enter The Dragon (1973) 2xUkr NemoInFire  2 / 0   1.86 GB   2015-05-30 21:42 
vladmas 
Новенький


З нами з: 27.04.13
Востаннє: 09.12.16
Повідомлень: 2

2015-10-30 17:27  
Кажуть, незамінних людей немає, неправда, Брюса Лі замінити неможливо.
Ваш часовий пояс: GMT + 2 Години

Нова тема   Відповісти