Завантажити та скачати торренти українською


007: Координати "Скайфолл" / Skyfall (2012) 1080p-mini Ukr/Eng | Sub Eng

Нові коментарі

Нова тема   Відповісти
Автор Повідомлення
Anonymous 







2013-02-03 12:45  
007: Координати "Скайфолл" / Skyfall (2012) 1080p-mini Ukr/Eng | Sub Eng

007: Координати "Скайфолл" / Skyfall (2012) 1080p-mini Ukr/Eng | Sub Eng


Жанр: бойовик, трилер, пригодницький, кримінальний
Країна: США, Великобританія



Кіностудія / кінокомпанія: Metro-Goldwyn-Mayer (MGM), Danjaq, Eon Productions
Режисер: Сем Мендес
Актори: Деніел Крейґ, Джуді Денч, Хав'єр Бардем, Ральф Файнс, Наомі Гарріс, Альберт Фінні, Бен Вішоу, Гелен МакКрорі

Сюжет:
У новій серії пригод Джеймса Бонда на MІ6 здійснюється напад, і агент 007 повинен ліквідувати загрозу незважаючи на ціну, яку потрібно заплатити. Крім того, йому доведеться пройти серйозне випробування вірністю, коли темне минуле його начальниці М раптово дасть про себе знати.


Тривалість: 02:23:10
Якість: 1080p ref=5 me=umh subme=10 розмір=7.76 GB
Відео:
кодек:
розмір кадру: 1920x800
бітрейт: 6866 кб/с

Аудіо # 1:
мова: українська
переклад: професійний дубльований
кодек: 5.1
бітрейт: 448 кб/с
Інформація про дубляж
Фільм надано компанією Columbia Pictures дубльовано LeDoyen Studio на замовлення B&H Film Distribution
Переклад: Федора Сидорука
Режисер дубляжу: Ольга Фокіна
Звукорежисери: Андрій Тріфонов і Дмитро Мялковський
Координатор проекту: Аліна Гаєвська
Ролі дублювали: Деніел Крейґ/Бонд — Михайло Жонін, Хав’єр Бардем/Сілва — Юрій Гребельник, Наомі Гарріс/Ів — Олена Узлюк, Джуді Денч/Ем — Ніна Касторф, Рейф Файнс/Меллорі — Михайло Войчук, Альберт Фінні/Кінкейд — Олександр Бондаренко, Береніс Мерло/Северин — Юлія Перенчук, Гелен МакКрой/Клер Довар — Наталя Задніпровська, Бен Віншоу/К’ю — Павло Скороходько, Рорі Кіннер/Теннер — Дмитро Завадський та інші.
Аудіо # 2:
мова: англійська
переклад: оригінал
кодек: 5.1
бітрейт: 448 кб/с

Субтитри # 1:
мова: українська (форсовані)
тип: програмні (м'які)
формат: *.srt

Субтитри # 2:
мова: англійська
тип: програмні (м'які)
формат: *.srt

Збережено оригінальні розділи, як на Blu-ray
MediaInfo
General
Unique ID : 204762121603921683306481523247427207980 (0x9A0BC009A7B57AC7B6893B199D65C32C)
Complete name : Skyfall.2012..1080p.Ukr.Eng.mkv
Format : Matroska
Format version : Version 4 / Version 2
File size : 7.76 GiB
Duration : 2h 23mn
Overall bit rate : 7 763 Kbps
Movie name : 007: Координати "Скайфолл" / Skyfall (2012)
Encoded date : UTC 2013-02-03 10:23:18
Writing application : mkvmerge v6.0.0 ('Coming Up For Air') built on Jan 20 2013 09:52:00
Writing library : libebml v1.3.0 + libmatroska v1.4.0

Video
ID : 1
Format : AVC
Format/Info : Advanced Video Codec
Format profile : [email protected]
Format settings, CABAC : Yes
Format settings, ReFrames : 5 frames
Codec ID : V_MPEG4/ISO/AVC
Duration : 2h 23mn
Bit rate : 6 866 Kbps
Width : 1 920 pixels
Height : 800 pixels
Display aspect ratio : 2.40:1
Frame rate mode : Constant
Frame rate : 23.976 fps
Color space : YUV
Chroma subsampling : 4:2:0
Bit depth : 8 bits
Scan type : Progressive
Bits/(Pixel*Frame) : 0.186
Stream size : 6.71 GiB (86%)
Title : rip by AlexKa
Writing library : core 129 r2245 bc13772
Encoding settings : cabac=1 / ref=5 / deblock=1:-3:-3 / analyse=0x3:0x133 / me=umh / subme=10 / psy=1 / psy_rd=1.00:0.00 / mixed_ref=1 / me_range=32 / chroma_me=1 / trellis=2 / 8x8dct=1 / cqm=0 / deadzone=21,11 / fast_pskip=0 / chroma_qp_offset=-2 / threads=12 / lookahead_threads=2 / sliced_threads=0 / nr=0 / decimate=0 / interlaced=0 / bluray_compat=0 / constrained_intra=0 / bframes=5 / b_pyramid=2 / b_adapt=2 / b_bias=0 / direct=3 / weightb=1 / open_gop=0 / weightp=2 / keyint=240 / keyint_min=23 / scenecut=40 / intra_refresh=0 / rc=2pass / mbtree=0 / bitrate=6866 / ratetol=1.0 / qcomp=0.60 / qpmin=0 / qpmax=69 / qpstep=4 / cplxblur=20.0 / qblur=0.5 / ip_ratio=1.40 / pb_ratio=1.30 / aq=1:0.80
Language : English
Default : Yes
Forced : No

Audio #1
ID : 2
Format : AC-3
Format/Info : Audio Coding 3
Mode extension : CM (complete main)
Format settings, Endianness : Big
Codec ID : A_AC3
Duration : 2h 23mn
Bit rate mode : Constant
Bit rate : 448 Kbps
Channel(s) : 6 channels
Channel positions : Front: L C R, Side: L R, LFE
Sampling rate : 48.0 KHz
Bit depth : 16 bits
Compression mode : Lossy
Stream size : 459 MiB (6%)
Title : [ Blu-ray EUR]
Language : Ukrainian
Default : Yes
Forced : No

Audio #2
ID : 3
Format : AC-3
Format/Info : Audio Coding 3
Mode extension : CM (complete main)
Format settings, Endianness : Big
Codec ID : A_AC3
Duration : 2h 23mn
Bit rate mode : Constant
Bit rate : 448 Kbps
Channel(s) : 6 channels
Channel positions : Front: L C R, Side: L R, LFE
Sampling rate : 48.0 KHz
Bit depth : 16 bits
Compression mode : Lossy
Stream size : 459 MiB (6%)
Title : original
Language : English
Default : No
Forced : No

Text #1
ID : 4
Format : UTF-8
Codec ID : S_TEXT/UTF8
Codec ID/Info : UTF-8 Plain Text
Title : Ukr Forced
Language : Ukrainian
Default : Yes
Forced : Yes

Text #2
ID : 5
Format : UTF-8
Codec ID : S_TEXT/UTF8
Codec ID/Info : UTF-8 Plain Text
Title : Eng Full
Language : English
Default : No
Forced : No

Menu
00:00:00.000 : :Chapter 01
00:04:28.476 : :Chapter 02
00:07:32.452 : :Chapter 03
00:12:47.391 : :Chapter 04
00:16:47.464 : :Chapter 05
00:21:37.337 : :Chapter 06
00:25:00.290 : :Chapter 07
00:29:25.221 : :Chapter 08
00:35:06.145 : :Chapter 09
00:38:27.763 : :Chapter 10
00:41:24.440 : :Chapter 11
00:46:22.905 : :Chapter 12
00:50:48.628 : :Chapter 13
00:54:53.290 : :Chapter 14
00:59:38.741 : :Chapter 15
01:05:14.243 : :Chapter 16
01:10:16.670 : :Chapter 17
01:17:09.750 : :Chapter 18
01:20:55.058 : :Chapter 19
01:26:10.373 : :Chapter 20
01:31:49.754 : :Chapter 21
01:37:04.527 : :Chapter 22
01:40:49.084 : :Chapter 23
01:43:45.969 : :Chapter 24
01:45:54.723 : :Chapter 25
01:52:10.598 : :Chapter 26
01:54:45.795 : :Chapter 27
01:58:13.044 : :Chapter 28
02:02:49.111 : :Chapter 29
02:09:38.645 : :Chapter 30
02:14:49.623 : :Chapter 31
02:17:46.424 : :Chapter 32
02:23:09.706 : :Chapter 33

[info]: frame I:1965 Avg QP:15.60 size:201656
[info]: frame P:48129 Avg QP:18.09 size: 71380
[info]: frame B:155859 Avg QP:19.89 size: 22708


Джерело: ріп відео, англ.доріжка та субтитри з релізу AlexKa (рутор); українська доріжка та форсовані саби - Blu-ray EUR (рутрекер, HQCLUB)

Оптимальне співвідношення розмір/якість


 Трекер:    Зареєстрований   

Завантажити / скачати фільм українською



відео для новачків



 Зареєстрований:   2013-02-03 12:46
 Розмір:   7.76 GB 
 Оцінка фільму:   7.1/10 (Голосів: 33)
   
Ваш часовий пояс: GMT + 2 Години

Нова тема   Відповісти