Завантажити та скачати торренти українською


007: Координати "Скайфолл" / Skyfall (2012) 1080p Ukr/Eng | Sub Eng

Нові коментарі

Нова тема   Відповісти
Автор Повідомлення
leroykendall 
Модератор HD


З нами з: 03.01.11
Востаннє: 20.11.16
Повідомлень: 749

2013-02-03 10:24  
007: Координати "Скайфолл" / Skyfall (2012) 1080p Ukr/Eng | Sub Eng

007: Координати "Скайфолл" / Skyfall (2012) 1080p Ukr/Eng | Sub Eng


Жанр: бойовик, пригодницький, кримінальний, трилер
Країна: США, Великобританія






Кіностудія / кінокомпанія: Metro-Goldwyn-Mayer (MGM), Danjaq, Eon Productions
Режисер: Сем Мендес (Sam Mendes)
Актори: Деніел Крейґ (Daniel Craig), Рейф Файнс (Ralph Fiennes), Хавьєр Бардем (Javier Bardem), Бен Вішоу (Ben Whishaw), Хелен МакКрорі (Helen McCrory), Джуді Денч (Judi Dench), Наомі Харріс (Naomie Harris)

Сюжет:
У новій серії пригод Джеймса Бонда на MІ6 здійснюється напад, і агент 007 повинен ліквідувати загрозу незважаючи на ціну, яку потрібно заплатити. Крім того, йому доведеться пройти серйозне випробування вірністю, коли темне минуле його начальниці М раптово дасть про себе знати.


Тривалість: 02:23:10
Якість: 1080p
Відео:
кодек:
розмір кадру: 1920 x 802
бітрейт: 9744 кб/с

Аудіо # 1:
мова: українська
переклад: професійний дубльований
кодек: 5.1
бітрейт: 448 кб/с

Аудіо # 2:
мова: англійська
переклад: оригінал
кодек: 5.1
бітрейт: 1536 кб/с

Аудіо # 3:
мова: англійська
переклад: оригінал з поясненнями
кодек: 5.1
бітрейт: 448 кб/с

Аудіо # 4:
мова: англійська
переклад: коментарі режисера Сема Мендеса
кодек: 2.0
бітрейт: 224 кб/с

Аудіо # 5:
мова: англійська
переклад: коментарі продюсерів Барбари Броколі та Мікаеля Уілсона та художника-постановника Деніса Гасснера
кодек: 2.0
бітрейт: 224 кб/с

Джерело озвучення:


Субтитри:
мова: українська - форсовані
тип: програмні (м'які)
формат: *.srt

Субтитри:
мова: англійська
тип: програмні (м'які)
формат: *.srt

Субтитри:
мова: англійська - коментарі режисера Сема Мендеса
тип: програмні (м'які)
формат: *.srt

Субтитри:
мова: англійська - коментарі продюсерів Барбари Броколі та Мікаеля Уілсона та художника-постановника Деніса Гасснера
тип: програмні (м'які)
формат: *.srt

Збережені оригінальні чаптери як на Blu-ray.


MediaInfo
Код:
General
Complete name                    : V:\Skyfall (2012) [Ukr, Eng] 1080p [Hurtom, HDClub] by leroykendall.mkv
Format                           : Matroska
File size                        : 12.9 GiB
Duration                         : 2h 23mn
Overall bit rate                 : 12.9 Mbps
Movie name                       : Skyfall (2012) 1080p [Hurtom, HDClub]
Encoded date                     : UTC 2013-02-03 00:48:31
Writing application              : mkvmerge v5.8.0 ('No Sleep / Pillow') built on Sep  2 2012 15:37:04
Writing library                  : libebml v1.2.3 + libmatroska v1.3.0

Video
ID                               : 1
Format                           : AVC
Format/Info                      : Advanced Video Codec
Format profile                   : [email protected]
Format settings, CABAC           : Yes
Format settings, ReFrames        : 5 frames
Muxing mode                      : Container [email protected]
Codec ID                         : V_MPEG4/ISO/AVC
Duration                         : 2h 23mn
Bit rate                         : 9 744 Kbps
Nominal bit rate                 : 10 000 Kbps
Width                            : 1 920 pixels
Height                           : 802 pixels
Display aspect ratio             : 2.35:1
Frame rate                       : 23.976 fps
Resolution                       : 24 bits
Colorimetry                      : 4:2:0
Scan type                        : Progressive
Bits/(Pixel*Frame)               : 0.264
Stream size                      : 9.73 GiB (76%)
Title                            : Skyfall (2012) 1080p [Hurtom, HDClub]
Writing library                  : core 129 r2245 bc13772
Encoding settings                : cabac=1 / ref=5 / deblock=1:-3:-3 / analyse=0x3:0x133 / me=umh / subme=11 / psy=1 / psy_rd=1.05:0.05 / mixed_ref=1 / me_range=32 / chroma_me=1 / trellis=2 / 8x8dct=1 / cqm=0 / deadzone=21,11 / fast_pskip=0 / chroma_qp_offset=-3 / threads=12 / lookahead_threads=2 / sliced_threads=0 / nr=0 / decimate=0 / interlaced=0 / bluray_compat=0 / constrained_intra=0 / bframes=7 / b_pyramid=2 / b_adapt=2 / b_bias=0 / direct=3 / weightb=1 / open_gop=0 / weightp=2 / keyint=240 / keyint_min=23 / scenecut=40 / intra_refresh=0 / rc_lookahead=60 / rc=2pass / mbtree=0 / bitrate=10000 / ratetol=1.0 / qcomp=0.60 / qpmin=0 / qpmax=69 / qpstep=4 / cplxblur=20.0 / qblur=0.5 / vbv_maxrate=50000 / vbv_bufsize=62500 / nal_hrd=none / ip_ratio=1.40 / pb_ratio=1.30 / aq=1:0.80

Audio #1
ID                               : 2
Format                           : AC-3
Format/Info                      : Audio Coding 3
Codec ID                         : A_AC3
Duration                         : 2h 23mn
Bit rate mode                    : Constant
Bit rate                         : 448 Kbps
Channel(s)                       : 6 channels
Channel positions                : Front: L C R, Surround: L R, LFE
Sampling rate                    : 48.0 KHz
Stream size                      : 459 MiB (3%)
Title                            : 5.1 @ 448 kbps - професійний дубльований [BluRay]
Language                         : Ukrainian

Audio #2
ID                               : 3
Format                           :
Format/Info                      : Digital Theater Systems
Codec ID                         : A_DTS
Duration                         : 2h 23mn
Bit rate mode                    : Constant
Bit rate                         : 1 510 Kbps
Channel(s)                       : 6 channels
Channel positions                : Front: L C R, Surround: L R, LFE
Sampling rate                    : 48.0 KHz
Resolution                       : 24 bits
Stream size                      : 1.51 GiB (12%)
Title                            : 5.1 @ 1536 kbps

Audio #3
ID                               : 4
Format                           : AC-3
Format/Info                      : Audio Coding 3
Codec ID                         : A_AC3
Duration                         : 2h 23mn
Bit rate mode                    : Constant
Bit rate                         : 448 Kbps
Channel(s)                       : 6 channels
Channel positions                : Front: L C R, Surround: L R, LFE
Sampling rate                    : 48.0 KHz
Stream size                      : 459 MiB (3%)
Title                            : 5.1 @ 448 kbps - Descriptive

Audio #4
ID                               : 5
Format                           : AC-3
Format/Info                      : Audio Coding 3
Codec ID                         : A_AC3
Duration                         : 2h 23mn
Bit rate mode                    : Constant
Bit rate                         : 224 Kbps
Channel(s)                       : 2 channels
Channel positions                : L R
Sampling rate                    : 48.0 KHz
Stream size                      : 229 MiB (2%)
Title                            : 2.0 @ 224 kbps - Commentary Sam Mendes

Audio #5
ID                               : 6
Format                           : AC-3
Format/Info                      : Audio Coding 3
Codec ID                         : A_AC3
Duration                         : 2h 23mn
Bit rate mode                    : Constant
Bit rate                         : 224 Kbps
Channel(s)                       : 2 channels
Channel positions                : L R
Sampling rate                    : 48.0 KHz
Stream size                      : 229 MiB (2%)
Title                            : 2.0 @ 224 kbps - Commentary Dennis Gassner

Text #1
ID                               : 7
Format                           : UTF-8
Codec ID                         : S_TEXT/UTF8
Codec ID/Info                    : UTF-8 Plain Text
Title                            : forced
Language                         : Ukrainian

Text #2
ID                               : 8
Format                           : UTF-8
Codec ID                         : S_TEXT/UTF8
Codec ID/Info                    : UTF-8 Plain Text

Text #3
ID                               : 9
Format                           : UTF-8
Codec ID                         : S_TEXT/UTF8
Codec ID/Info                    : UTF-8 Plain Text
Title                            : Commentary Sam Mendes

Text #4
ID                               : 10
Format                           : UTF-8
Codec ID                         : S_TEXT/UTF8
Codec ID/Info                    : UTF-8 Plain Text
Title                            : Commentary Dennis Gassner

Menu
00:00:00.000                     : en:Opening Credits
00:04:28.476                     : en:Ghost Ship
00:07:32.452                     : en:Into the Wreck
00:12:47.391                     : en:The Keldysh
00:16:47.464                     : en:The Woman in the Picture
00:21:37.337                     : en:Old Rose Arrives
00:25:00.290                     : en:Reflections of the Past
00:29:25.221                     : en:Back to Titanic
00:35:06.145                     : en:A Lucky Hand
00:38:27.763                     : en:Leaving Port
00:41:24.440                     : en:Cherbourg
00:46:22.905                     : en:Ode to Titanic
00:50:48.628                     : en:First Glance
00:54:53.290                     : en:"You Jump, I Jump"
00:59:38.741                     : en:An Invitation to Dinner
01:05:14.243                     : en:The Heart of the Ocean
01:10:16.670                     : en:Sketches and Stories
01:17:09.750                     : en:Learning New Things
01:20:55.058                     : en:Dinner with Jack
01:26:10.373                     : en:A Real Party
01:31:49.754                     : en:A Cold Breakfast
01:37:04.527                     : en:Sunday Prayer
01:40:49.084                     : en:"They've Got You Trapped"
01:43:45.969                     : en:Flying
01:45:54.723                     : en:"That Was the Last Time..."
01:52:10.598                     : en:The Drawing
01:54:45.795                     : en:"My Heart Was Pounding"
01:58:13.044                     : en:"Find Her"
02:02:49.111                     : en:Two Souls United
02:09:38.645                     : en:"Iceberg Right Ahead!"
02:14:49.623                     : en:An Honest Thief
02:17:46.424                     : en:A Mathematical Certainty
Скріншоти:


Джерело:


 Трекер:    Зареєстрований   

Завантажити / скачати фільм українською



відео для новачків



 Зареєстрований:   2013-02-03 10:24
 Розмір:   12.85 GB 
 Оцінка фільму:   9.6/10 (Голосів: 15)
   
[email protected]|K 
Новенький


З нами з: 11.01.12
Востаннє: 14.10.16
Повідомлень: 3

2013-02-03 11:29  
Станьте будь ласка на роздачу

Додано через 34 хвилини 55 секунд:

Дякую)

Ваш часовий пояс: GMT + 2 Години

Нова тема   Відповісти