Завантажити та скачати торренти українською


Три мушкетери / The Three Musketeers (2011) 1080p 3D OverUnder Ukr/Eng

Нові коментарі

Нова тема   Відповісти
Автор Повідомлення
dinosaurus 
Частий відвідувач


З нами з: 13.12.10
Востаннє: 05.11.16
Повідомлень: 36

2013-02-03 10:18  
Три мушкетери / The Three Musketeers (2011) 1080p 3D OverUnder Ukr/Eng

Три мушкетери / The Three Musketeers (2011) 1080p 3D OverUnder Ukr/Eng


Жанр: пригодницький, екшн, романтичний
Країна: Німеччина, Франція, Велика Британія, США



Кіностудія / кінокомпанія: Constantin Film Produktion, Nouvelles Editions de Films, New Legacy, Impact Pictures
Режисер: Пол У. С. Андерсон
Актори: Мет’ю Макфейден, Мілла Йовович, Люк Еванс, Рей Стівенсон, Орландо Блум, Лоґан Лерман

Сюжет:
Якщо вам набридли класичні екранізації творів Дюма, де мушкетери просто скачуть на конях і б’ються на шпагах, зустрічайте новий фільм, де бойовий плавець-нінзя Атос разом з друзями і Міледі викрадає у венеціанців секрет побудови дирижабля і потім рятує честь королеви Франції, здобувши перемогу над гвардійцями кардинала у повітряному бою


Тривалість: 01:50:32
Якість:
Відео:
кодек:
розмір кадру: 1920 х 1080
бітрейт: 9 669 кб/с

Аудіо # 1:
мова: українська
переклад: багатоголосий закадровий
кодек: 5.1
бітрейт: 448 кб/с

Аудіо # 2:
мова: англійська
переклад: оригінал
кодек: 5.1
бітрейт: 640 кб/с

Джерело озвучення:
MediaInfo
General
Unique ID : 222961358832500533219369416313036230942 (0xA7BCCBB5BA0332CBA7BBF2E69A6E511E)
Complete name : D:\temp\The.Three.Musketeers.2011..3D.OvreUnder.Ukr_Line.Eng.mkv
Format : Matroska
Format version : Version 4 / Version 2
File size : 8.47 GiB
Duration : 1h 50mn
Overall bit rate : 11.0 Mbps
Movie name : The Three Musketeers (3D) 2011
Encoded date : UTC 2010-02-22 21:41:31
Writing application : mkvmerge v5.9.0 ('On The Loose') built on Dec 9 2012 15:37:01
Writing library : libebml v1.3.0 + libmatroska v1.4.0

Video
ID : 1
Format : AVC
Format/Info : Advanced Video Codec
Format profile : [email protected]
Format settings, CABAC : Yes
Format settings, ReFrames : 4 frames
Codec ID : V_MPEG4/ISO/AVC
Duration : 1h 50mn
Bit rate : 9 669 Kbps
Width : 1 920 pixels
Height : 1 080 pixels
Display aspect ratio : 16:9
Frame rate mode : Constant
Frame rate : 23.976 fps
Color space : YUV
Chroma subsampling : 4:2:0
Bit depth : 8 bits
Scan type : Progressive
Bits/(Pixel*Frame) : 0.194
Stream size : 7.46 GiB (88%)
Writing library : core 119 r2106 07efeb4
Encoding settings : cabac=1 / ref=4 / deblock=1:-3:-3 / analyse=0x3:0x113 / me=umh / subme=9 / psy=1 / psy_rd=1.00:0.15 / mixed_ref=1 / me_range=16 / chroma_me=1 / trellis=2 / 8x8dct=1 / cqm=0 / deadzone=21,11 / fast_pskip=1 / chroma_qp_offset=-3 / threads=3 / sliced_threads=0 / nr=0 / decimate=1 / interlaced=0 / bluray_compat=0 / constrained_intra=0 / bframes=6 / b_pyramid=2 / b_adapt=2 / b_bias=0 / direct=3 / weightb=1 / open_gop=0 / weightp=2 / keyint=250 / keyint_min=23 / scenecut=40 / intra_refresh=0 / rc_lookahead=60 / rc=crf / mbtree=1 / crf=18.0 / qcomp=0.70 / qpmin=0 / qpmax=69 / qpstep=4 / vbv_maxrate=40000 / vbv_bufsize=40000 / crf_max=0.0 / nal_hrd=none / ip_ratio=1.40 / aq=1:0.70
Default : Yes
Forced : No

Audio #1
ID : 2
Format : AC-3
Format/Info : Audio Coding 3
Mode extension : CM (complete main)
Format settings, Endianness : Big
Codec ID : A_AC3
Duration : 1h 50mn
Bit rate mode : Constant
Bit rate : 448 Kbps
Channel(s) : 6 channels
Channel positions : Front: L C R, Side: L R, LFE
Sampling rate : 48.0 KHz
Bit depth : 16 bits
Compression mode : Lossy
Stream size : 354 MiB (4%)
Title : Line Ukr
Language : Ukrainian
Default : Yes
Forced : No

Audio #2
ID : 3
Format : AC-3
Format/Info : Audio Coding 3
Mode extension : CM (complete main)
Format settings, Endianness : Big
Codec ID : A_AC3
Duration : 1h 50mn
Bit rate mode : Constant
Bit rate : 640 Kbps
Channel(s) : 6 channels
Channel positions : Front: L C R, Side: L R, LFE
Sampling rate : 48.0 KHz
Bit depth : 16 bits
Compression mode : Lossy
Stream size : 506 MiB (6%)
Title : eng
Language : English
Default : No
Forced : No
Скріншоти










Джерело:
Особиста оцінка: 8 - мені сподобалося


 Трекер:    Зареєстрований   

Завантажити / скачати фільм українською



відео для новачків



 Зареєстрований:   2013-02-03 10:18
 Розмір:   8.47 GB 
 Оцінка фільму:   8.3/10 (Голосів: 10)
   
Інші релізи
   Три мушкетери / The Three Musketeers (2011) 3xUkr/Eng | Sub Eng Gelios  4 / 0   2.18 GB   2014-07-06 14:54 
   Мушкетери / The Three Musketeers (2011) 720p Ukr/Eng Zeus62  2 / 0   4.6 GB   2012-03-25 11:15 
ALFROMEDA 
Відео Гуртом - підтримка та поширення
Відео Гуртом - підтримка та поширення


З нами з: 09.07.12
Востаннє: 11.12.16
Повідомлень: 214

2013-06-30 20:24  
якщо можна без 3д меньшим файлом ~2гб, будь ласка
yuranako 
VIP


З нами з: 03.11.10
Востаннє: 11.12.16
Повідомлень: 1139

2013-06-30 20:33  
Користуйтесь або пошуком, або спойлером "Інші релізи" внизу цього релізу - http://toloka.to/t34581
ALFROMEDA 
Відео Гуртом - підтримка та поширення
Відео Гуртом - підтримка та поширення


З нами з: 09.07.12
Востаннє: 11.12.16
Повідомлень: 214

2013-06-30 22:12  
дякую)
в пошук кидав три мушкетери тому і не знайшов

yu_mazur 
Новенький


З нами з: 24.09.11
Востаннє: 04.11.16
Повідомлень: 2

2013-08-08 21:55  
перегляд - трата часу.
чекав більшого (

Ваш часовий пояс: GMT + 2 Години

Нова тема   Відповісти