Завантажити та скачати торренти українською


Шлях Дракона / Meng long guo jiang / The Way of the Dragon (1972) 1080p 2xUkr | sub Eng

Нові коментарі

Нова тема   Відповісти
Автор Повідомлення
Anonymous 







2013-02-02 12:15  
Шлях Дракона / Meng long guo jiang / The Way of the Dragon (1972) 1080p 2xUkr | sub Eng

Шлях Дракона / Meng long guo jiang / The Way of the Dragon (1972) 1080p 2xUkr | sub Eng


Жанр: бойовик, трилер, драма, комедія, кримінальний
Країна: Гонконг



Кіностудія / кінокомпанія: Concord Productions Inc., Golden Harvest Company
Режисер: Брюс Лі
Актори: Брюс Лі, Нора Міао, Чак Норіс, Ентоні Лау, Маліса Лонго

Фільмографія Брюса Лі на Гуртом

Сюжет:
Тан приїздить з Гонгконгу в Рим, аби допомогти друзям родини, чий ресторан захотіли відібрати місцеві мафіозі. Звиклі завжди отримувати все що захочуть і не зупинятись ні перед чим, бандити зробили велику помилку, недооцінивши скромного на вигляд хлопця. Не зумівши впоратись із ним власними силами, мафіозі винаймають кращих європейських та японських майстрів бойових мистецтв, однак Тан з легкістю перемагає всіх. І тоді проти нього на арену стародавнього Колізею виходить "крутий та смертоносний" американець Колт.


Тривалість: 01:38:40
Якість: 1080p, ref=5, me=umh, subme=11 - на найвищому рівні
Відео:
кодек:
розмір кадру: 1920x816
бітрейт: 9978 кб/с

Аудіо # 1:
мова: українська
переклад: багатоголосий закадровий
Ролі озвучили: Анатолій Зіновенко, невстановлений актор (по стб озвучує) і Людмила Ардельян
кодек: 5.1
бітрейт: 640 кб/с

Аудіо # 2:
мова: українська
переклад: багатоголосий закадровий
Ролі озвучили: Дмитро Гаврилов, Дмитро Терещук, Анатолій Пашнін, жіночий голос поки не встановлений.
кодек: 2.0
бітрейт: 192 кб/с

Субтитри:
мова: англійська
тип: програмні (м'які)
формат: *.srt

Збережено оригінальні розділи, як на Blu-ray
MediaInfo
General
Unique ID : 233815672474439014004260382333830765069 (0xAFE742B0B0508E3F962B698DD3151A0D)
Complete name : The Way of the Dragon.1972..1080p.2xUkr.mkv
Format : Matroska
Format version : Version 4 / Version 2
File size : 7.45 GiB
Duration : 1h 38mn
Overall bit rate : 10.8 Mbps
Movie name : Шлях Дракона / Meng long guo jiang / The Way of the Dragon (1972)
Encoded date : UTC 2013-02-02 08:52:27
Writing application : mkvmerge v6.0.0 ('Coming Up For Air') built on Jan 20 2013 09:52:00
Writing library : libebml v1.3.0 + libmatroska v1.4.0
Attachment : Yes / Yes

Video
ID : 1
Format : AVC
Format/Info : Advanced Video Codec
Format profile : [email protected]
Format settings, CABAC : Yes
Format settings, ReFrames : 5 frames
Codec ID : V_MPEG4/ISO/AVC
Duration : 1h 38mn
Bit rate : 9 978 Kbps
Width : 1 920 pixels
Height : 816 pixels
Display aspect ratio : 2.35:1
Frame rate mode : Constant
Frame rate : 23.976 fps
Color space : YUV
Chroma subsampling : 4:2:0
Bit depth : 8 bits
Scan type : Progressive
Bits/(Pixel*Frame) : 0.266
Stream size : 6.73 GiB (90%)
Title : rip by Alex260680 Шлях Дракона / Путь Дракона
Writing library : core 129 r2245 bc13772
Encoding settings : cabac=1 / ref=5 / deblock=1:-1:-1 / analyse=0x3:0x113 / me=umh / subme=11 / psy=1 / psy_rd=1.00:0.10 / mixed_ref=1 / me_range=32 / chroma_me=1 / trellis=2 / 8x8dct=1 / cqm=0 / deadzone=21,11 / fast_pskip=0 / chroma_qp_offset=-3 / threads=12 / lookahead_threads=2 / sliced_threads=0 / nr=0 / decimate=0 / interlaced=0 / bluray_compat=0 / constrained_intra=0 / bframes=5 / b_pyramid=2 / b_adapt=2 / b_bias=0 / direct=3 / weightb=1 / open_gop=0 / weightp=2 / keyint=240 / keyint_min=23 / scenecut=40 / intra_refresh=0 / rc=2pass / mbtree=0 / bitrate=9978 / ratetol=1.0 / qcomp=0.60 / qpmin=0 / qpmax=69 / qpstep=4 / cplxblur=20.0 / qblur=0.5 / ip_ratio=1.40 / pb_ratio=1.30 / aq=1:0.90
Language : Chinese
Default : Yes
Forced : No

Audio #1
ID : 2
Format : AC-3
Format/Info : Audio Coding 3
Mode extension : CM (complete main)
Format settings, Endianness : Big
Codec ID : A_AC3
Duration : 1h 38mn
Bit rate mode : Constant
Bit rate : 640 Kbps
Channel(s) : 6 channels
Channel positions : Front: L C R, Side: L R, LFE
Sampling rate : 48.0 KHz
Bit depth : 16 bits
Compression mode : Lossy
Stream size : 452 MiB (6%)
Title : MVO [Hurtom-wrongfunction]
Language : Ukrainian
Default : Yes
Forced : No

Audio #2
ID : 3
Format : AC-3
Format/Info : Audio Coding 3
Mode extension : CM (complete main)
Format settings, Endianness : Big
Codec ID : A_AC3
Duration : 1h 38mn
Bit rate mode : Constant
Bit rate : 192 Kbps
Channel(s) : 2 channels
Channel positions : Front: L R
Sampling rate : 48.0 KHz
Bit depth : 16 bits
Compression mode : Lossy
Stream size : 136 MiB (2%)
Title : MVO NTN [Hurtom-patriot2305]
Language : Ukrainian
Default : No
Forced : No

Text
ID : 4
Format : UTF-8
Codec ID : S_TEXT/UTF8
Codec ID/Info : UTF-8 Plain Text
Title : Eng Full
Language : English
Default : No
Forced : No

Menu
00:00:00.000 : en:Chapter1
00:02:10.921 : en:Chapter2
00:12:11.605 : en:Chapter3
00:17:37.056 : en:Chapter4
00:20:49.455 : en:Chapter5
00:28:57.359 : en:Chapter6
00:35:07.313 : en:Chapter7
00:40:19.250 : en:Chapter8
00:42:13.322 : en:Chapter9
00:43:59.302 : en:Chapter10
00:45:22.385 : en:Chapter11
00:47:07.199 : en:Chapter12
00:55:39.918 : en:Chapter13
01:02:06.304 : en:Chapter14
01:08:17.426 : en:Chapter15
01:11:37.667 : en:Chapter16
01:14:07.317 : en:Chapter17
01:21:06.485 : en:Chapter18
01:34:34.918 : en:Chapter19
01:36:15.728 : en:Chapter20
01:38:40.747 : en:Chapter21


Джерело: ріп відео, субтитри з релізу alex260680 (рутор); українська доріжка #1 - від wrongfunction (Hurtom), з розділу "Доріжки" на сервері, українська доріжка #2 - Zet95 (запис з ТБ), patriot2305 - зведення (Hurtom); постер - Musketeer (Hurtom)
Особиста оцінка: 8 - мені сподобалося


Срібний реліз (на рейтинг впливає 50% завантаженого)
 Трекер:    Зареєстрований   

Завантажити / скачати фільм українською



відео для новачків



 Зареєстрований:   2013-02-02 12:15
 Розмір:   7.45 GB 
 Оцінка фільму:   4/10 (Голосів: 15)
   
Інші релізи
Anonymous 







2013-02-02 13:20  
Якщо треба стати на роздачу - пишіть у приват.
Anonymous 







2013-02-04 16:11  
Jack_Daniels 
VIP


З нами з: 30.07.10
Востаннє: 11.12.16
Повідомлень: 298

2013-02-04 17:21  
Дякую, нарешті завантажив, на днях перегляну відпишусь.
п.с. потрібна швидкість пишіть в приват Happy

Ваш часовий пояс: GMT + 2 Години

Нова тема   Відповісти