Завантажити та скачати торренти українською


007 Координати «Скайфол» / Skyfall (2012) Ukr/Eng | Sub Eng

Нові коментарі

Нова тема   Відповісти
Автор Повідомлення
pyatachok 
Координатор літератури


З нами з: 30.01.10
Востаннє: 09.12.16
Повідомлень: 1337

2013-02-01 14:45  
007 Координати «Скайфол» / Skyfall (2012) Ukr/Eng | Sub Eng

007 Координати «Скайфол» / Skyfall (2012) Ukr/Eng | Sub Eng


Жанр: бойовик, пригодницький, кримінальний, трилер
Країна: США, Великобританія



Кіностудія / кінокомпанія: Metro-Goldwyn-Mayer (MGM), Danjaq, Eon Productions
Режисер: Сем Мендес Sam Mendes
Актори: Деніел Крейг (Daniel Craig), Рейф Файнс (Ralph Fiennes), Хавьєр Бардем (Javier Bardem), Бен Вішоу (Ben Whishaw), Хелен МакКрорі (Helen McCrory), Джуді Денч (Judi Dench), Наомі Харріс (Naomie Harris) та інші.

Сюжет:
Хоч головний принцип його роботи – цілковита таємність, не помітити його важко. До його послуг новітні шпигунські
винаходи, біля його ніг усі жінки світу, за його спиною уся британська розвідка. Кожне його нове завдання стає дедалі
небезпечніше, але це тільки спонукає його ретельніше розробляти план місії. Увага, леді і джентльмени, до справи береться
агент 007!


Тривалість: 02:23:09
Якість:
Відео:
кодек:
розмір кадру: 720x304
бітрейт: 1990 кб/с

Аудіо # 1:
мова: українська
переклад: професійний дубльований
кодек: 5.1
бітрейт: 448 кб/с


Інформація про дубляж
Фільм надано компанією Columbia Pictures дубльовано LeDoyen Studio на замовлення B&H Film Distribution
Переклад: Федора Сидорука
Режисер дубляжу: Ольга Фокіна
Звукорежисери: Андрій Тріфонов і Дмитро Мялковський
Координатор проекту: Аліна Гаєвська
Ролі дублювали: Михайло Жонін, Юрій Гребельник, Олена Узлюк, Ніна Касторф, Михайло Войчук, Олександр Бондаренко, Юлія Перенчук, Наталя Задніпровська, Павло Скороходько, Дмитро Завадський та інші.



Аудіо # 2:
мова: англійська
переклад: оригінал
кодек: 5.1
бітрейт: 448 кб/с

Джерело озвучення:


Субтитри:
мова: українська (форсовані), англійська
тип: програмні (м'які)
формат: *.srt


Скріншоти

Original (Blu-ray) vs Encode





Більше скріншотів
MediaInfo
Код:
General
Complete name                            : D:\Hurtom\...\Skyfall (2012) [Ukr, Eng][sub. Ukr, Eng] [Hurtom-pyatachok]\Skyfall (2012) [Ukr, Eng] [sub. Ukr, Eng] [Hurtom-pyatachok].avi
Format                                   : AVI
Format/Info                              : Audio Video Interleave
Format profile                           : OpenDML
File size                                : 2.90 GiB
Duration                                 : 2h 23mn
Overall bit rate                         : 2 901 Kbps
Writing application                      : VirtualDubMod 1.5.10.2 (build 2540/release)
Writing library                          : VirtualDubMod build 2540/release

Video
ID                                       : 0
Format                                   : MPEG-4 Visual
Format profile                           : Advanced [email protected]
Format settings, BVOP                    : 2
Format settings, QPel                    : Yes
Format settings, GMC                     : No warppoints
Format settings, Matrix                  : Default (MPEG)
Codec ID                                 :
Codec ID/Hint                            :
Duration                                 : 2h 23mn
Bit rate                                 : 1 990 Kbps
Width                                    : 720 pixels
Height                                   : 304 pixels
Display aspect ratio                     : 2.35:1
Frame rate                               : 23.976 fps
Color space                              : YUV
Chroma subsampling                       : 4:2:0
Bit depth                                : 8 bits
Scan type                                : Progressive
Compression mode                         : Lossy
Bits/(Pixel*Frame)                       : 0.379
Stream size                              : 1.99 GiB (69%)
Writing library                          : 1.2.1 (UTC 2008-12-04)

Audio #1
ID                                       : 1
Format                                   : AC-3
Format/Info                              : Audio Coding 3
Mode extension                           : CM (complete main)
Format settings, Endianness              : Big
Codec ID                                 : 2000
Duration                                 : 2h 23mn
Bit rate mode                            : Constant
Bit rate                                 : 448 Kbps
Channel(s)                               : 6 channels
Channel positions                        : Front: L C R, Side: L R, LFE
Sampling rate                            : 48.0 KHz
Bit depth                                : 16 bits
Compression mode                         : Lossy
Stream size                              : 459 MiB (15%)
Alignment                                : Split accross interleaves
Interleave, duration                     : 42 ms (1.00 video frame)
Interleave, preload duration             : 500 ms

Audio #2
ID                                       : 2
Format                                   : AC-3
Format/Info                              : Audio Coding 3
Mode extension                           : CM (complete main)
Format settings, Endianness              : Big
Codec ID                                 : 2000
Duration                                 : 2h 23mn
Bit rate mode                            : Constant
Bit rate                                 : 448 Kbps
Channel(s)                               : 6 channels
Channel positions                        : Front: L C R, Side: L R, LFE
Sampling rate                            : 48.0 KHz
Bit depth                                : 16 bits
Compression mode                         : Lossy
Stream size                              : 459 MiB (15%)
Alignment                                : Split accross interleaves
Interleave, duration                     : 42 ms (1.00 video frame)
Interleave, preload duration             : 500 ms



Джерело:
Особиста оцінка: 10 - без зайвих вагань рекомендую всім!


 Трекер:    Зареєстрований   

Завантажити / скачати фільм українською



відео для новачків



 Зареєстрований:   2013-02-03 13:38
 Розмір:   2.9 GB 
 Оцінка фільму:   9.2/10 (Голосів: 59)
   
marta-maria 
Новенький


З нами з: 21.06.10
Востаннє: 27.11.16
Повідомлень: 4

2013-02-07 17:30  
юхуууу!!1
вже качаю!!

dimich777 
Свій


З нами з: 26.02.10
Востаннє: 01.11.15
Повідомлень: 80

2013-02-07 18:35  
СУПЕР !!!! ДУЖЕ ДУЖЕ класний початок. Очей неможливо відырвати від спецефектів ! Рекомендую-початок !
km123456 
Новенький


З нами з: 15.01.12
Востаннє: 25.07.16
Повідомлень: 2

2013-02-09 18:23  
Привіт, підкажіть б-ласка, таке. За допомогою стандартного Windows Media Player відтворюється одразу і англ. і укр. звук, а за допомогою Media Player Classic тільки укр.
І ні там, ні там не можна перемкнути звукову доріжку. Що я роблю не так?

pyatachok 
Координатор літератури


З нами з: 30.01.10
Востаннє: 09.12.16
Повідомлень: 1337

2013-02-09 18:32  
km123456
Привіт.
Windows Media Player тупенький, тому й відтворює все й одразуHappy
А в Media Player Classic міняється так: Права кнопка мишки -> Audio -> Stream 2

km123456 
Новенький


З нами з: 15.01.12
Востаннє: 25.07.16
Повідомлень: 2

2013-02-09 18:52  
Дякую, Пятачок!
Просто у мене в меню "Права кнопка мишки -> Audio" є тільки один Stream 1 :)
Але з відео все ОК, це щось із моїм ПЗ, тому не буду далі розводити офтоп

Darth Vladius 
Частий відвідувач


З нами з: 18.08.11
Востаннє: 26.11.16
Повідомлень: 27

2013-02-13 07:42  
Дуже дякую)
STONTS 
Озвучення


З нами з: 04.06.12
Востаннє: 04.12.16
Повідомлень: 282

2013-02-16 20:20  
Велике дякую))
Wertoman 
Новенький


З нами з: 08.03.10
Востаннє: 07.12.16
Повідомлень: 20

2013-02-24 18:47  
Cry (2)
більш ніж дві години життя на дурню, як він зібрав 1 мільярд??
не вартий ні одної копійки

Avsel 
Свій


З нами з: 30.04.08
Востаннє: 18.11.16
Повідомлень: 57

2013-03-09 22:14  
Фільм в принципі досить хороший.
KarpatyS 
Частий відвідувач


З нами з: 08.01.12
Востаннє: 04.12.16
Повідомлень: 48

2014-01-05 00:06  
очікував більше після "Казино" і "Кванту"... 7/10
Maters 
VIP


З нами з: 27.03.12
Востаннє: 08.12.16
Повідомлень: 1162

2014-09-05 20:49  
KarpatyS написано:
очікував більше після "Казино" і "Кванту"...

підтримую! чогось в цьому фільмі не вистачало

realr 
Новенький


З нами з: 22.10.11
Востаннє: 05.12.16
Повідомлень: 11

2015-11-20 16:56  
В "Спектрі", в порівнянні зі "Скайфол", не вистачає набагато більше. Нажаль...
gashyk 
Свій


З нами з: 19.03.10
Востаннє: 07.12.16
Повідомлень: 74

2016-02-05 00:56  
А українські саби то і не вмикаються... Шкод
Ваш часовий пояс: GMT + 2 Години

Нова тема   Відповісти