Завантажити та скачати торренти українською


Молодіжний хор "Осанна" - Різдво-Коляда (20??) [FLAC] | Chorus, Instrumental

Нові коментарі

Нова тема   Відповісти
Автор Повідомлення
bohun 
VIP


З нами з: 21.03.09
Востаннє: 05.12.16
Повідомлень: 271

2013-01-31 23:08  
Молодіжний хор "Осанна" - Різдво-Коляда (20??) [FLAC] | Chorus, Instrumental

Молодіжний хор "Осанна" - Різдво-Коляда (20??) [FLAC] | Chorus, Instrumental


Стиль: Christian Classic
Країна, місто: Україна, Івано-Франківськ
Видавець: "Свічадо"
Виконавці: Молодіжний хор "Осанна"
Пісні:
    1. Все в нас сьогодні (А. Гнатишин)
    2. Свята ніч (Ф. Грубер, аранж. Л. Терлецька)
    3. 7.01 (зі збірки "FM-Галичина", Т. Прохасько)
    4. Зійшла зоря над Вифлиємом (М. Лозинська)
    5. 7.01 (продовження, Т. Прохасько)
    6. Різдвяна (О. Степанович, аранж Л. Терлецька)
    7. 7.01 (продовження-закінчення, Т. Прохасько)
    8. Спи, Ісусе, спи (аранж О. Петрів, Л. Терлецька)
    9. Що то за предиво (обр. О. Кошиця)
    10. Різдвяний вечір в горах (Г. Петросаняк)
    11. На Свят вечір (І. Недільский)
    12. Добрий вечір тобі (обр. К. Стеценка)
    13. Небо і земля (обр. В. Барвінського, переклад для хору Р. Стельмащука)
    14. Народні віншування
    15. На небі зірка (обр. Н. Нижанківського)
    16. Рождество Христове (обр. К. Стеценка)
    17. Ой на ріці, на Йордані (обр. М. Леонтовича)
    18. Щедрівки (фрагмент вокально-хореографічної композиції, А. Кушніренко)
    19. Будьте здорові (аранж. О. Петрів)
    20. Gloria In Excelsis (Б.-І. Антонич)
    21. Різдво-Коляда (муз. В. Жданкіна, опрацювання Б. Генгала, сл. Б.-І. Антонича)
Звіт EAC
Exact Audio Copy V1.0 beta 3 from 29. August 2011

EAC extraction logfile from 30. January 2013, 20:17

Молодіжний хор 'Осанна' / Різдво-Коляда

Used drive : TSSTcorpCDDVDW TS-L633F Adapter: 0 ID: 0

Read mode : Secure
Utilize accurate stream : Yes
Defeat audio cache : Yes
Make use of C2 pointers : No

Read offset correction : 6
Overread into Lead-In and Lead-Out : No
Fill up missing offset samples with silence : Yes
Delete leading and trailing silent blocks : No
Null samples used in CRC calculations : Yes
Used interface : Native Win32 interface for Win NT & 2000

Used output format : User Defined Encoder
Selected bitrate : 896 kBit/s
Quality : High
Add ID3 tag : No
Command line compressor : D:\Dropbox\Install\AudioCDRipping\EAC_1.0_beta_3_Portable_Multilingual\EAC_1.0_beta_3_Portable_Multilingual\App\EAC\FLAC\flac.exe
Additional command line options : -8 -V -T "ARTIST=%artist%" -T "TITLE=%title%" -T "ALBUM=%albumtitle%" -T "DATE=%year%" -T "TRACKNUMBER=%tracknr%" -T "GENRE=%genre%" -T "COMMENT=%comment%" %hascover%--picture="%coverfile%"%hascover% %source% -o %dest%

TOC of the extracted CD

Track | Start | Length | Start sector | End sector
---------------------------------------------------------
1 | 0:00.00 | 0:48.15 | 0 | 3614
2 | 0:48.15 | 4:45.29 | 3615 | 25018
3 | 5:33.44 | 0:50.49 | 25019 | 28817
4 | 6:24.18 | 3:30.33 | 28818 | 44600
5 | 9:54.51 | 1:17.45 | 44601 | 50420
6 | 11:12.21 | 1:50.52 | 50421 | 58722
7 | 13:02.73 | 0:44.40 | 58723 | 62062
8 | 13:47.38 | 3:12.15 | 62063 | 76477
9 | 16:59.53 | 2:38.24 | 76478 | 88351
10 | 19:38.02 | 0:39.43 | 88352 | 91319
11 | 20:17.45 | 2:31.70 | 91320 | 102714
12 | 22:49.40 | 2:22.16 | 102715 | 113380
13 | 25:11.56 | 2:26.35 | 113381 | 124365
14 | 27:38.16 | 0:48.60 | 124366 | 128025
15 | 28:27.01 | 1:55.53 | 128026 | 136703
16 | 30:22.54 | 2:14.13 | 136704 | 146766
17 | 32:36.67 | 2:00.34 | 146767 | 155800
18 | 34:37.26 | 2:52.02 | 155801 | 168702
19 | 37:29.28 | 1:18.19 | 168703 | 174571
20 | 38:47.47 | 0:22.03 | 174572 | 176224
21 | 39:09.50 | 3:16.36 | 176225 | 190960

Range status and errors

Selected range

Filename C:\Users\Микола\Desktop\777\Молодіжний хор 'Осанна' - Різдво-Коляда.wav

Peak level 95.0 %
Extraction speed 3.0 X
Range quality 100.0 %
Test CRC F34D1007
Copy CRC F34D1007
Copy OK

No errors occurred

End of status report

==== Log checksum DAFDCF66534F6821120B4A4FB850CCA9C8A4CBCAC16FDC79D6F5BEF8D54C4D4F ====
Звіт auCDtect
-----------------------

DON'T MODIFY THIS FILE

-----------------------

PERFORMER: auCDtect Task Manager, ver. 1.5.1RC6 build 1.5.1.7
Copyright (c) 2008-2010 y-soft. All rights reserved
http://y-soft.org

ANALYZER: auCDtect: CD records authenticity detector, version 0.8.2
Copyright (c) 2004 Oleg Berngardt. All rights reserved.
Copyright (c) 2004 Alexander Djourik. All rights reserved.

FILE: Молодіжний хор 'Осанна' - Різдво-Коляда.flac
Size: 219883404 Hash: 96B726FD70507121DEA632BBCE41A1BC Accuracy: -m0
Conclusion: CDDA 100%
Signature: E769821C7616B2E0DDB425275CC0331D6D897777
Спектр
Тривалість: 00:42:46
Мова: українська
Аудіо-кодек: FLAC
Бітрейт: 690 кбіт/с
Джерело: Власний ріп


Срібний реліз (на рейтинг впливає 50% завантаженого)
 Трекер:    Зареєстрований   

Завантажити / скачати українську музику



відео для новачків



 Зареєстрований:   2013-01-31 23:08
 Розмір:   296 MB 
 Оцінка музики:   9.8/10 (Голосів: 8)
   
bohun 
VIP


З нами з: 21.03.09
Востаннє: 05.12.16
Повідомлень: 271

2013-01-31 23:15  
bohun 
VIP


З нами з: 21.03.09
Востаннє: 05.12.16
Повідомлень: 271

2013-02-01 15:16  
Терпіння, зможу роздати тільки ввечері
Ваш часовий пояс: GMT + 2 Години

Нова тема   Відповісти