Завантажити та скачати торренти українською


Вбити пересмішника / To Kill a Mockingbird (1962) 1080p Ukr/Eng | sub Eng

Нові коментарі

Нова тема   Відповісти
Останній раз роздавалося unbreakable04 (2016-12-03)
Автор Повідомлення
Omikron 
VIP


З нами з: 03.01.12
Востаннє: 30.11.16
Повідомлень: 297

2013-01-28 22:45  
Вбити пересмішника / To Kill a Mockingbird (1962) 1080p Ukr/Eng | sub Eng

Вбити пересмішника / To Kill a Mockingbird (1962) 1080p Ukr/Eng | sub Eng


Жанр: драма, кримінал, детектив
Країна: США

Top 250 #70

Кіностудія / кінокомпанія: Brentwood Production, Pakula-Mulligan, Universal International Pictures (UI or U-I)
Режисер: Роберт Маліган
Актори: Ґреґорі Пек, Мері Бедам, Філліп Елфорд, Френк Овертон, Брок Пітерс

Сюжет:
Людина, що має тверді переконання і віру в правду завжди заслуговує на повагу. Саме такою людиною є наш герой. Живе він у часи розквіту расизму і треба ж таке статися, щоб йому доручили захищати чорношкірого американця. Герою доводиться йти проти упередженості і наклепу, щоб виправдати невинного. Але крім того він має ще й двійко малих бешкетників, яких змушений ростити без матері, тож він має слугувати для них хорошим прикладом.


Тривалість: 02:09:10
Якість:
Відео:
кодек:
розмір кадру: 1920x1040
бітрейт: 10.4 мб/с

Аудіо # 1:
мова: українська | "Студія Омікрон" |
переклад: багатоголосий закадровий
кодек: 5.1
бітрейт: 1510 кб/с

Аудіо # 2:
мова: англійська
переклад: оригінал
кодек: 5.1
бітрейт: 1510 кб/с

Аудіо # 3:
мова: англійська
переклад: коментарі
кодек: 2.0
бітрейт: 192 кб/с

Субтитри:
мова: англійська
тип: програмні (м'які)
формат: *.srt

Скріншоти




MediaInfo
Format : Matroska
Format version : Version 2
File size : 12.4 GiB
Duration : 2h 9mn
Overall bit rate : 13.7 Mbps
Movie name : To Kill a Mockingbird (1962)
Encoded date : UTC 2013-01-28 16:45:08
Writing application : mkvmerge v2.9.0 ('Moanin'') built on May 22 2009 17:46:31
Writing library : libebml v0.7.7 + libmatroska v0.8.1

Video
ID : 1
Format : AVC
Format/Info : Advanced Video Codec
Format profile : [email protected]
Format settings, CABAC : Yes
Format settings, ReFrames : 4 frames
Codec ID : V_MPEG4/ISO/AVC
Duration : 2h 9mn
Bit rate : 10.3 Mbps
Width : 1 920 pixels
Height : 1 040 pixels
Display aspect ratio : 1.85:1
Frame rate mode : Constant
Frame rate : 23.976 fps
Color space : YUV
Chroma subsampling : 4:2:0
Bit depth : 8 bits
Scan type : Progressive
Bits/(Pixel*Frame) : 0.214
Stream size : 9.26 GiB (75%)
Writing library : core 120 r2164 da19765
Encoding settings : cabac=1 / ref=4 / deblock=1:-3:-3 / analyse=0x3:0x113 / me=umh / subme=10 / psy=1 / psy_rd=1.15:0.10 / mixed_ref=1 / me_range=32 / chroma_me=1 / trellis=2 / 8x8dct=1 / cqm=0 / deadzone=21,11 / fast_pskip=1 / chroma_qp_offset=-3 / threads=6 / sliced_threads=0 / nr=0 / decimate=1 / interlaced=0 / bluray_compat=0 / constrained_intra=0 / bframes=8 / b_pyramid=2 / b_adapt=2 / b_bias=0 / direct=3 / weightb=1 / open_gop=0 / weightp=2 / keyint=250 / keyint_min=23 / scenecut=40 / intra_refresh=0 / rc_lookahead=60 / rc=crf / mbtree=1 / crf=16.0 / qcomp=0.60 / qpmin=0 / qpmax=69 / qpstep=4 / ip_ratio=1.40 / aq=1:0.70
Language : English
Default : Yes
Forced : No

Audio #1
ID : 2
Format :
Format/Info : Digital Theater Systems
Codec ID : A_DTS
Duration : 2h 9mn
Bit rate mode : Constant
Bit rate : 1 510 Kbps
Channel(s) : 6 channels
Channel positions : Front: L C R, Side: L R, LFE
Sampling rate : 48.0 KHz
Bit depth : 24 bits
Compression mode : Lossy
Stream size : 1.36 GiB (11%)
Title : MVO Omikron Studio for Hurtom
Language : Ukrainian
Default : Yes
Forced : No

Audio #2
ID : 3
Format :
Format/Info : Digital Theater Systems
Codec ID : A_DTS
Duration : 2h 9mn
Bit rate mode : Constant
Bit rate : 1 510 Kbps
Channel(s) : 6 channels
Channel positions : Front: L C R, Side: L R, LFE
Sampling rate : 48.0 KHz
Bit depth : 24 bits
Compression mode : Lossy
Stream size : 1.36 GiB (11%)
Language : English
Default : No
Forced : No

Audio #3
ID : 4
Format : AC-3
Format/Info : Audio Coding 3
Mode extension : CM (complete main)
Format settings, Endianness : Big
Codec ID : A_AC3
Duration : 2h 9mn
Bit rate mode : Constant
Bit rate : 192 Kbps
Channel(s) : 2 channels
Channel positions : Front: L R
Sampling rate : 48.0 KHz
Bit depth : 16 bits
Compression mode : Lossy
Stream size : 177 MiB (1%)
Title : Commentary with Director Robert Mulligan and Producer Alan Pakula
Language : English
Default : No
Forced : No

Text
ID : 5
Format : UTF-8
Codec ID : S_TEXT/UTF8
Codec ID/Info : UTF-8 Plain Text
Title : English (SDH)
Language : English
Default : No
Forced : No
Про озвучення

Українське озвучення створено студією "Омікрон" на замовлення Hurtom.com в рамках проекту "Хочеш кіно українською? Замовляй!"



Дякуємо користувачам, що фінансово допомогли проекту:
lionlegion, Pit33, Володимир, TyNeLo, uarenik, legat, 310763, buddilnik, orest_music, funtruhnet, Uptown, olfed111, vifilo, sigito, Oleksandr, ron_, Рудобородий, lomkovsky, Navarra, igor911, talantgor, Nevestiuk, shambig, velizariy, Batiaruk, vovaz, boblv, shangri-la, leshkm, 5E_koleco, webamator.org.ua, sanekjn, YURIYUXO, stadion.lviv.ua, SunWind, wtr, dimaandr, Xobit, Kalynka Rosso, nazar, knockout, Кость, dimic, Infoserfer, Кумяр, TIPERUS, antoxxa082, yarik_ratnik, nastik., TriVVet, IvanB123456, Roni, Петро21, albioriks, denskipper, avtoboss, yozhh, vdima82, steeple, Gotenot, Лілія, nik, ameks, mikolay, @knygoyid, sashaiv74, Кузьма72, jona, Olegatr, М_а_м_а_й, have got, TarasD, GodSaveUkraine, shtein, Gxost, Олександр, Sturm_UA, Jonsen, lynxnake, OlegVysh, Demetrios, Sirpent, tarand, zalexxx, barbarian, Tank302, Неля Глушко, chaliy, merlin_zaraza, cyclone2000, rybanok27, alex4e, Ingvar, Aussie, loiknazar, olfed111, Sensetivity, cyberprostir, Est, Sepoolka, bandera77, Vikk, Warrog, GrossQX, zavzyata, ValicV, Myshko3007, ghost392, Soarus12345, Fizia, vladyk, Xshot, viter07, Yellow_man, iro4ka_skin, lerk, MisterR, tumick, Leksyk, Chirka, somnambula, MarianB, Mr Yuran, nelester, panama58, Лунсар, Sheldon, stalker_cv, yg, Nikson, fishMD, nemos, hummer
Також дякуємо користувачам, що надали фінансову допомогу, але побажали бути анонімними.

Детальніше про проект.
За постер подяка somnambula.

Джерело:

Фільми, які було озвучено на замовлення Гуртом (допоможіть озвучити наступні):
М: Місто шукає вбивцю (1931)
Чарівник країни Оз (1939)
Великий диктатор (1940)
Громадянин Кейн (1941)
Подвійна страховка (1944)
Це дивовижне життя (1946)
Викрадачі велосипедів (1948)
Рашьомон (1950)
Сім самураїв (1954)
У випадку вбивства телефонуйте "М" (1954)
Леді та Блудько (1955) нове
12 розгніваних чоловіків (1957)
Сьома печатка (1957)
На північ через північний захід (1959)
Більярдист (1961)
Охоронець (1961)
Вбити пересмішника (1962)
Людина, що вбила Ліберті Веленса (1962)
Вісім з половиною (1963)
Велика прогулянка (1966)
Як Ґрінч украв Різдво! (1966)
Випускник (1967)
Самурай (1967)
Одного разу на Дикому Заході (1968)
Коти-аристократи (1970)
Механічний апельсин (1971)
Навколо світу за 80 днів (1972) нове
Китайський квартал (1974)
Пролітаючи над гніздом зозулі (1975)
Телемережа (1976)
Енні Голл (1977) нове
Мисливець на оленів (1978)
Буття Брайана за Монті Пайтоном (1979)
Коли я буду там (1979)
Мангеттен (1979)
Людина-слон (1980)
Приборкання норовливого (1980)
Скажений бик (1980)
Підводний човен (1981)
Ґанді (1982)
Король комедії (1982) нове
Різдвяна історія (1983)
Амадей (1984)
Барва пурпурова (1985)
Бразилія (1985)
Ран (1985)
Великий мишачий детектив (1986)
Небесний замок Лапута (1986)
Акіра (1988)
Мій сусід Тоторо (1988)
Останній з могікан (1992)
Скажені пси (1992)
Шосе в нікуди (1997) нове
Американська історія Ікс (1998)
Страх і огида в Лас-Вегасі (1998)
Шоу Трумена (1998)
Догма (1999)
Магнолія (1999) нове
Сука любов (2000) нове
Нічия земля (2001)
Родина Тененбаумів (2001)
Тріо з Бельвіля (2003)
Труднощі перекладу (2003)
Бункер (2004)
Готель Руанда (2004)
Тренер Картер (2005)
Льодовиковий період 2 (2006)
Лабіринт Фавна (2006)
Людина з планети Земля (2007)
В тіні місяця (2007)
Голод (2008)
Іп Мен (2008)
Викрадена (2008)
Впусти мене (2008)
Хвиля (2008)
Містер Ніхто (2009)
13 вбивць (2010)
Бетмен: Під червоною маскою (2010)
Іп Мен 2 (2010)
Котяче життя (2010)
Позичайка Аріетті (2010)
Чорний Лебідь (2010)
Місто (2010)
Сенна (2010)
50/50 (2011)
Адвокат на лінкольні (2011)
Дерево життя (2011)
Опівночі в Парижі (2011)
Воїн (2011)
Драйв (2011)
Життя за один день (2011)
Укриття (2011)
Хижа в лісі (2011)
Рейд: Спокута (2011)
Акт вбивства (2012)
Арго (2012)
Безпека не гарантується (2012)
Викрадена 2 (2012)
Збірка промінців надії (2012)
Ернест і Селестіна (2012)
Звірі дикого Півдня (2012)
Лінкольн (2012)
Любов (2012)
Надійні хлопці (2012)
Паркер (2012)
Переваги скромників (2012)
Пліч-о-пліч (2012)
Полювання (2012)
Розірване коло (2012)
Суддя Дредд (2012)
Тридцять хвилин по півночі (2012)
Що б ви зробили (2012)
Американська афера (2013)
Виклик (2013)
Вона (2013)
Ворог (2013)
Всередині Л'ювіна Девіса (2013)
Джо (2013)
Зловісні мерці (2013)
Іда (2013)
Лок (2013)
Небраска (2013)
Неймовірна подорож містера Співета (2013) нове
Побічна дія (2013)
Перед північчю (2013)
Снігобур (2013)
Стокер (2013)
TPB: за межами клавіатури (2013)
Гниле місто (2013)
Бердмен (2014)
Вероніка Марс (2014)
Вроджена вада (2014) нове
Дика (2014) нове
Інтерв'ю (2014) нове
Святий Вінсент (2014)
Пісня моря (2014) нове
Призначення (2014) нове
Шеф-кухар (2014)


Авторський реліз (завантажувати можна без реєстрації)
 Трекер:    Зареєстрований   

Завантажити / скачати фільм українською



відео для новачків



 Зареєстрований:   2013-01-28 23:45
 Розмір:   12.4 GB 
 Оцінка фільму:   9.7/10 (Голосів: 6)
   
okzdp 
Поважний учасник


З нами з: 27.05.09
Востаннє: 02.12.16
Повідомлень: 209

2014-11-15 23:57  
Хороший фільм
Ваш часовий пояс: GMT + 2 Години

Нова тема   Відповісти