Завантажити та скачати торренти українською


Одружуся з першою ліпшою / Wedding Daze (2006) 720p 2xUkr/Eng | Sub Eng

Нові коментарі

Нова тема   Відповісти
Автор Повідомлення
4erkov 
Відео Гуртом - запис з ТБ
Відео Гуртом - запис з ТБ


З нами з: 09.10.10
Востаннє: 06.12.16
Повідомлень: 1846

2013-01-28 12:06  
Одружуся з першою ліпшою / Wedding Daze (2006) 720p 2xUkr/Eng | Sub Eng

Одружуся з першою ліпшою / Wedding Daze (2006) 720p 2xUkr/Eng | Sub Eng

Альтернативний постер

Жанр: комедія, мелодрама
Країна: США

Кіностудія / кінокомпанія: GreeneStreet Films, The Pleasure Company Inc.
Режисер: Майкл Йен Блек / Michael Ian Black
Актори: Джейсон Біггз / Jason Biggs, Айла Фішер / Isla Fisher, Майкл Bестон / Michael Weston, Ебон Мосс-Бакрак / Ebon Moss-Bachrach, Джо Пантоліано / Joe Pantoliano, Хезер Голденхерш / Heather Goldenhersh, Джоанна Глісон / Joanna Gleason, Едвард Харрманн / Edward Herrmann, Марго Мартіндейл / Margo Martindale
Сюжет:
Молодий чоловік на прізвище Андерсон ніяк не може влаштувати своє особисте життя. Зі своєю колишньою подружкою він розійшовся так несподівано, що потім цілий рік ходив похмурішим за хмару. Його друг, надія і опора в будь-якій ситуації, не міг більше виносити подібного стану товариша і запропонував йому одружитися на першій зустрічній. Недовго думаючи, Андерсон робить пропозицію руки і серця незнайомій офіціантці. Та, до загального здивування, погоджується. Пізніше, правда, з'ясовується, що покликати заміж і погодитися - це ще півбіди, а ось витримати знайомство з батьками - що з того, що з іншого боку - це випробування куди як складніше.

Тривалість: 01:31:46
Якість:
Відео:
кодек:
розмір кадру: 1280 х 688
бітрейт: 5308 кб/с

Аудіо:
мова: українська
переклад: двоголосий закадровий
кодек: 2.0
бітрейт: 192 кб/с

Аудіо # 2:
мова: українська
переклад: двоголосий закадровий
кодек: 2.0
бітрейт: 192 кб/с

Аудіо # 3:
мова: англійська
переклад: оригінал
кодек: 5.1
бітрейт: 1510 кб/с

Субтитри:
мова: англійська
тип: програмні (м'які)
формат: *.srt
Джерело озвучення:
Ролі озвучили: Дмитро Завадський та Лідія Муращенко.
Джерело озвучення #2:

Скріншоти







Media-Info
Код:
General
Unique ID                                : 193357536754869190327038804036738347706 (0x91774E979CAD428295D28CE5BA1FF2BA)
Format                                   : Matroska
Format version                           : Version 4 / Version 2
File size                                : 4.62 GiB
Duration                                 : 1h 31mn
Overall bit rate                         : 7 200 Kbps
Movie name                               : Одружуся з першою ліпшою / Wedding Daze (2006) 720p Ukr/Eng | Sub Eng
Encoded date                             : UTC 2010-02-22 21:41:31
Writing application                      : mkvmerge v5.9.0 ('On The Loose') built on Dec  9 2012 15:37:01
Writing library                          : libebml v1.3.0 + libmatroska v1.4.0

Video
ID                                       : 1
Format                                   : AVC
Format/Info                              : Advanced Video Codec
Format profile                           : [email protected]
Format settings, CABAC                   : Yes
Format settings, ReFrames                : 5 frames
Codec ID                                 : V_MPEG4/ISO/AVC
Duration                                 : 1h 31mn
Bit rate                                 : 5 308 Kbps
Width                                    : 1 280 pixels
Height                                   : 688 pixels
Display aspect ratio                     : 1.85:1
Frame rate mode                          : Constant
Frame rate                               : 23.976 fps
Color space                              : YUV
Chroma subsampling                       : 4:2:0
Bit depth                                : 8 bits
Scan type                                : Progressive
Bits/(Pixel*Frame)                       : 0.251
Stream size                              : 3.31 GiB (72%)
Title                                    : (720p)
Writing library                          : core 116 r2037 f8ebd4a
Encoding settings                        : cabac=1 / ref=5 / deblock=1:0:0 / analyse=0x3:0x113 / me=umh / subme=8 / psy=1 / psy_rd=1.00:0.00 / mixed_ref=1 / me_range=16 / chroma_me=1 / trellis=1 / 8x8dct=1 / cqm=0 / deadzone=21,11 / fast_pskip=1 / chroma_qp_offset=-2 / threads=12 / sliced_threads=0 / nr=0 / decimate=1 / interlaced=0 / bluray_compat=0 / constrained_intra=0 / bframes=3 / b_pyramid=2 / b_adapt=2 / b_bias=0 / direct=3 / weightb=1 / open_gop=0 / weightp=2 / keyint=240 / keyint_min=24 / scenecut=40 / intra_refresh=0 / rc_lookahead=50 / rc=2pass / mbtree=1 / bitrate=5308 / ratetol=1.0 / qcomp=0.60 / qpmin=0 / qpmax=69 / qpstep=4 / cplxblur=20.0 / qblur=0.5 / ip_ratio=1.40 / aq=1:1.00
Language                                 : English
Default                                  : Yes
Forced                                   : No

Audio #1
ID                                       : 2
Format                                   : AC-3
Format/Info                              : Audio Coding 3
Mode extension                           : CM (complete main)
Format settings, Endianness              : Big
Codec ID                                 : A_AC3
Duration                                 : 1h 31mn
Bit rate mode                            : Constant
Bit rate                                 : 192 Kbps
Channel(s)                               : 2 channels
Channel positions                        : Front: L R
Sampling rate                            : 48.0 KHz
Bit depth                                : 16 bits
Compression mode                         : Lossy
Stream size                              : 126 MiB (3%)
Title                                    : DVO (Новий канал)
Language                                 : Ukrainian
Default                                  : Yes
Forced                                   : No

Audio #2
ID                                       : 3
Format                                   : AC-3
Format/Info                              : Audio Coding 3
Mode extension                           : CM (complete main)
Format settings, Endianness              : Big
Codec ID                                 : A_AC3
Duration                                 : 1h 31mn
Bit rate mode                            : Constant
Bit rate                                 : 192 Kbps
Channel(s)                               : 2 channels
Channel positions                        : Front: L R
Sampling rate                            : 48.0 KHz
Bit depth                                : 16 bits
Compression mode                         : Lossy
Stream size                              : 126 MiB (3%)
Title                                    : К1
Language                                 : Ukrainian
Default                                  : No
Forced                                   : No

Audio #3
ID                                       : 4
Format                                   :
Format/Info                              : Digital Theater Systems
Mode                                     : 16
Format settings, Endianness              : Big
Codec ID                                 : A_DTS
Duration                                 : 1h 31mn
Bit rate mode                            : Constant
Bit rate                                 : 1 509 Kbps
Channel(s)                               : 6 channels
Channel positions                        : Front: L C R, Side: L R, LFE
Sampling rate                            : 48.0 KHz
Bit depth                                : 24 bits
Compression mode                         : Lossy
Stream size                              : 991 MiB (21%)
Title                                    : Original
Language                                 : English
Default                                  : No
Forced                                   : No

Text
ID                                       : 5
Format                                   : UTF-8
Codec ID                                 : S_TEXT/UTF8
Codec ID/Info                            : UTF-8 Plain Text
Language                                 : English
Default                                  : No
Forced                                   : No

Menu
00:00:00.000                             : en:True Love
00:07:22.692                             : en:Unforgettable
00:09:18.057                             : en:One Year Later
00:12:39.717                             : en:Perfect
00:18:58.429                             : en:Circus People
00:21:05.514                             : en:First Date
00:25:44.168                             : en:A Little Impulsive
00:29:22.135                             : en:The Promise
00:32:03.338                             : en:Secrets
00:37:04.139                             : en:Second Thoughts
00:43:01.454                             : en:Meet The Parents
00:47:28.888                             : en:Loser
00:50:13.260                             : en:Prison Break
00:54:03.323                             : en:Dead, Dead, Dead
00:57:38.789                             : en:A Lot Like Love
01:00:36.424                             : en:Bears
01:02:42.801                             : en:Now What?
01:04:46.424                             : en:On The Road
01:08:46.831                             : en:Vengeance
01:11:12.018                             : en:Vengeance
01:16:19.033                             : en:Yes!
01:18:18.777                             : en:Wedded Blues
01:23:16.867                             : en:Photo Op
01:27:45.844                             : en:End Titles

Джерело: Висловлюю подяку п. Віктору за допомогу. Запис з К1 - bodia87. Запис з Нового каналу та зведення - 4erkov.
Особиста оцінка: 5 з 10.


 Трекер:    Зареєстрований   

Завантажити / скачати фільм українською



відео для новачків



 Зареєстрований:   2013-07-26 17:05
 Розмір:   4.62 GB 
 Оцінка фільму:   8.3/10 (Голосів: 12)
   
Інші релізи
RomanOlenko 
Частий відвідувач


З нами з: 20.08.10
Востаннє: 05.12.16
Повідомлень: 28

2013-01-28 15:14  
"запор" на скріншоті бомба ))
kymvasa 
Новенький


З нами з: 23.09.10
Востаннє: 07.10.16
Повідомлень: 13

2013-01-28 16:48  
!Ого!
Дійсно Запорожець... кул

4erkov 
Відео Гуртом - запис з ТБ
Відео Гуртом - запис з ТБ


З нами з: 09.10.10
Востаннє: 06.12.16
Повідомлень: 1846

2013-07-26 17:09  
Торрент-файл оновлено. Додано озвучку К1.
PUMAUA 
Свій


З нами з: 07.11.09
Востаннє: 06.12.16
Повідомлень: 56

2013-07-27 02:34  
Маразм.
Ваш часовий пояс: GMT + 2 Години

Нова тема   Відповісти