Завантажити та скачати торренти українською


Бразилія [Режисерська версія] / Brazil [Director's Cut] (1985) 1080p Ukr/Eng | sub Eng

Нові коментарі

Нова тема   Відповісти
Автор Повідомлення
Anonymous 







2013-01-27 11:19  
Бразилія [Режисерська версія] / Brazil [Director's Cut] (1985) 1080p Ukr/Eng | sub Eng

Бразилія [Режисерська версія] / Brazil [Director's Cut] (1985) 1080p Ukr/Eng | sub Eng


Жанр: драма, фантастика, антиутопія
Країна: Велика Британія



Кіностудія / кінокомпанія: Embassy International Pictures
Режисер: Террі Ґілліам / Terry Gilliam
Актори: Джонатан Прайс / Jonathan Pryce, Кім Ґрейст / Kim Greist, Роберт де Ніро / Robert De Niro

Сюжет:
Сем Лоурі - крихітний гвинтик у величезній заржавілій бюрократичній машині тоталітарної держави майбутнього. Сем намагається не лізти в неприємності, але одного разу, помітивши помилку в документі, яка призвела до арешту безневинної людини, він вирішує виправити її. Благий намір скромного клерка зненацька для нього викликає цілу лавину дивних збігів і загадкових подій, і незабаром з'ясовується, що крихітна друкарська помилка здатна похитнути могутнього колоса на глиняних ногах.


Тривалість: 02:23:21
Якість: 1080p
Відео: The Criterion Collection, ріп від AlexKa
кодек:
розмір кадру: 1920x1032
бітрейт: 7480 кб/с

Аудіо # 1:
мова: українська
переклад: багатоголосий закадровий (ТО "Цікава ідея" на замовлення Hurtom.com)
кодек: 2.0
бітрейт: 224 кб/с
Про озвучення
Українське озвучення створено студією "Цікава ідея" на замовлення Hurtom.com в рамках проекту "Хочеш кіно українською? Замовляй!"

Дякуємо користувачам, що фінансово допомогли проекту:
lionlegion, Pit33, Володимир, TyNeLo, uarenik, legat, 310763, buddilnik, orest_music, funtruhnet, Uptown, olfed111, vifilo, sigito, Oleksandr, ron_, Рудобородий, lomkovsky, Navarra, igor911, talantgor, Nevestiuk, shambig, velizariy, Batiaruk, vovaz, boblv, shangri-la, leshkm, 5E_koleco, webamator.org.ua, sanekjn, YURIYUXO, stadion.lviv.ua, SunWind, wtr, dimaandr, Xobit, Kalynka Rosso, nazar, knockout, Кость, dimic, Infoserfer, Кумяр, TIPERUS, antoxxa082, yarik_ratnik, nastik., TriVVet, IvanB123456, Roni, Петро21, albioriks, denskipper, avtoboss, yozhh, vdima82, steeple, Gotenot, Лілія, nik, ameks, mikolay, @knygoyid, sashaiv74, Кузьма72, jona, Olegatr, М_а_м_а_й, have got, TarasD, GodSaveUkraine, shtein, Gxost, Олександр, Sturm_UA, Jonsen, lynxnake, OlegVysh, Demetrios, Sirpent, tarand, zalexxx, barbarian, Tank302, Неля Глушко, chaliy, merlin_zaraza, cyclone2000, rybanok27, alex4e, Ingvar, Aussie, loiknazar, olfed111, Sensetivity, cyberprostir, Est, Sepoolka, bandera77, Vikk, Warrog, GrossQX, zavzyata, ValicV, Myshko3007, ghost392, Soarus12345, Fizia, vladyk, Xshot, viter07, Yellow_man, iro4ka_skin, lerk, MisterR, tumick, Leksyk, Chirka, somnambula, MarianB, Mr Yuran, nelester, panama58, Лунсар, Sheldon, stalker_cv, yg, Nikson, fishMD, nemos, hummer
Також дякуємо користувачам, що надали фінансову допомогу, але побажали бути анонімними.

Детальніше про проект
Аудіо # 2:
мова: англійська
переклад: оригінал
кодек: 2.0
бітрейт: 224 кб/с

Субтитри:
мова: англійська
тип: програмні (м'які)
формат: *.srt

Збережені оригінальні розділи, як на Blu-ray
MediaInfo
General
Unique ID : 210623861506901409216087680946681411839 (0x9E74AE20CAAAC63890D6381A9F83F8FF)
Complete name : Brazil.DC.1985..1080p.Ukr.Eng.mkv
Format : Matroska
Format version : Version 4 / Version 2
File size : 7.94 GiB
Duration : 2h 23mn
Overall bit rate : 7 928 Kbps
Movie name : Бразилія / Brazil (1985, The Criterion Collection)
Encoded date : UTC 2013-01-26 08:12:18
Writing application : mkvmerge v6.0.0 ('Coming Up For Air') built on Jan 20 2013 09:52:00
Writing library : libebml v1.3.0 + libmatroska v1.4.0

Video
ID : 1
Format : AVC
Format/Info : Advanced Video Codec
Format profile : [email protected]
Format settings, CABAC : Yes
Format settings, ReFrames : 4 frames
Codec ID : V_MPEG4/ISO/AVC
Duration : 2h 23mn
Bit rate : 7 480 Kbps
Width : 1 920 pixels
Height : 1 032 pixels
Display aspect ratio : 1.85:1
Frame rate mode : Constant
Frame rate : 23.976 fps
Color space : YUV
Chroma subsampling : 4:2:0
Bit depth : 8 bits
Scan type : Progressive
Bits/(Pixel*Frame) : 0.157
Stream size : 7.33 GiB (92%)
Title : rip by AlexKa
Writing library : core 120 r2164 da19765
Encoding settings : cabac=1 / ref=4 / deblock=1:-3:-3 / analyse=0x3:0x133 / me=umh / subme=10 / psy=1 / psy_rd=1.00:0.10 / mixed_ref=1 / me_range=32 / chroma_me=1 / trellis=2 / 8x8dct=1 / cqm=0 / deadzone=21,11 / fast_pskip=0 / chroma_qp_offset=-3 / threads=12 / sliced_threads=0 / nr=0 / decimate=0 / interlaced=0 / bluray_compat=0 / constrained_intra=0 / bframes=5 / b_pyramid=2 / b_adapt=2 / b_bias=0 / direct=3 / weightb=1 / open_gop=0 / weightp=2 / keyint=240 / keyint_min=24 / scenecut=40 / intra_refresh=0 / rc_lookahead=60 / rc=2pass / mbtree=1 / bitrate=7480 / ratetol=1.0 / qcomp=0.60 / qpmin=0 / qpmax=69 / qpstep=4 / cplxblur=20.0 / qblur=0.5 / ip_ratio=1.40 / aq=1:1.00
Language : English
Default : No
Forced : No

Audio #1
ID : 2
Format : AC-3
Format/Info : Audio Coding 3
Mode extension : CM (complete main)
Format settings, Endianness : Big
Codec ID : A_AC3
Duration : 2h 23mn
Bit rate mode : Constant
Bit rate : 224 Kbps
Channel(s) : 2 channels
Channel positions : Front: L R
Sampling rate : 48.0 KHz
Bit depth : 16 bits
Compression mode : Lossy
Stream size : 230 MiB (3%)
Title : MVO Cikava ideya 2.0 224 Kbps [Hurtom]
Language : Ukrainian
Default : Yes
Forced : No

Audio #2
ID : 3
Format : AC-3
Format/Info : Audio Coding 3
Format profile : Dolby Digital
Mode extension : CM (complete main)
Format settings, Endianness : Big
Codec ID : A_AC3
Duration : 2h 23mn
Bit rate mode : Constant
Bit rate : 224 Kbps
Channel(s) : 2 channels
Channel positions : Front: L R
Sampling rate : 48.0 KHz
Bit depth : 16 bits
Compression mode : Lossy
Stream size : 230 MiB (3%)
Title : Original
Language : English
Default : No
Forced : No

Text
ID : 4
Format : UTF-8
Codec ID : S_TEXT/UTF8
Codec ID/Info : UTF-8 Plain Text
Title : Eng
Language : English
Default : No
Forced : No

Menu
00:00:00.000 : :Chapter 01
00:01:54.072 : :Chapter 02
00:07:29.657 : :Chapter 03
00:12:29.415 : :Chapter 04
00:15:46.236 : :Chapter 05
00:23:53.014 : :Chapter 06
00:34:30.943 : :Chapter 07
00:39:55.768 : :Chapter 08
00:44:57.361 : :Chapter 09
00:51:23.246 : :Chapter 10
00:57:26.776 : :Chapter 11
00:58:59.994 : :Chapter 12
01:05:53.240 : :Chapter 13
01:11:07.596 : :Chapter 14
01:15:30.692 : :Chapter 15
01:21:53.742 : :Chapter 16
01:31:27.440 : :Chapter 17
01:31:47.418 : :Chapter 18
01:37:36.058 : :Chapter 19
01:43:13.645 : :Chapter 20
01:47:04.292 : :Chapter 21
01:51:01.613 : :Chapter 22
01:53:23.087 : :Chapter 23
02:00:08.826 : :Chapter 24
02:05:13.005 : :Chapter 25
02:08:00.964 : :Chapter 26
02:13:51.106 : :Chapter 27
02:19:18.475 : :Chapter 28
02:23:20.383 : :Chapter 29


За постер подяка thefir

Особиста оцінка: 8 - мені сподобалося


Авторський реліз (завантажувати можна без реєстрації)
 Трекер:    Зареєстрований   

Завантажити / скачати фільм українською



відео для новачків



 Зареєстрований:   2013-01-27 11:19
 Розмір:   7.94 GB 
 Оцінка фільму:   4/10 (Голосів: 18)
   
hztn 
Частий відвідувач


З нами з: 22.09.10
Востаннє: 08.12.16
Повідомлень: 31

2013-11-18 10:06  
Є ще такий варіант кінця фільму: http://www.youtube.com/watch?v=a3YMaxqjfoQ
"СПОЙЛЕР!"

З ютубу:
Тері Гільяму не подобається цей варіант кінцівки, однак деякі люди надають перевагу цьому варіанту, протиставляючи її чорному та нигилістичному закінченню оригінальної кінострічки.
Сам дізнався про такий варіант лише шість років тому, хочі оригінал знаю з 90-х.

Ваш часовий пояс: GMT + 2 Години

Нова тема   Відповісти