Завантажити та скачати торренти українською


Монстри на канікулах / Hotel Transylvania (2012) AVC Ukr/Eng | Sub Eng

Нові коментарі

Нова тема   Відповісти
Автор Повідомлення
pyatachok 
Координатор літератури


З нами з: 30.01.10
Востаннє: 09.12.16
Повідомлень: 1337

2013-01-26 22:11  
Монстри на канікулах / Hotel Transylvania (2012) AVC Ukr/Eng | Sub Eng

Монстри на канікулах / Hotel Transylvania (2012) AVC Ukr/Eng | Sub Eng


Жанр: анімація, комедія, сімейний
Країна: США



Кіностудія / кінокомпанія: Columbia Pictures, Sony Pictures Animation
Режисер: Геннадій Тартаковський
Актори: Адам Сендлер, Селена Ґомез, Стів Бушемі, Кевін Джеймс, Девід Спейд, Енді Семберґ, Френ Дрешер та інші.

Сюжет:
Дочка Дракули зі славетного вампірського роду і Саймон Ван Гельсінґ, робота якого - полювати на вампірів, зустрілися у затишному готелі в Трансильванії. Закохавшись одне в одного, ці двоє стали справжніми Ромео і Джульєттою у світі жаху. Розв’язка буде зовсім неочікуваною, бо все у цих монстрів не так, як у людей.


Тривалість: 01:31:31
Якість: AVC
Відео:
кодек:
розмір кадру: 1056 x 570
бітрейт: 2521 кб/с

Аудіо # 1:
мова: українська
переклад: професійний дубльований
кодек: 5.1
бітрейт: 448 кб/с

Аудіо # 2:
мова: англійська
переклад: оригінал
кодек: 5.1
бітрейт: 448 кб/с

Джерело озвучення:


Субтитри 1-3:
мова: англійська (Full, SDH, Forced)
тип: програмні (м'які)
формат: *.srt
MediaInfo
Код:
General
Unique ID                                : 209943883891748039322317195661693353196 (0x9DF1B8A4ADE9DCE59BFF1E122DAEFCEC)
Complete name                            : D:\Hurtom\obrobka video\Готові релізи\Hotel Transylvania (2012) [Ukr. Eng] [sub. Eng] AVC [Hurtom-pyatachok].mkv
Format                                   : Matroska
Format version                           : Version 4 / Version 2
File size                                : 2.19 GiB
Duration                                 : 1h 31mn
Overall bit rate                         : 3 418 Kbps
Movie name                               : Hotel Transylvania (2012) - for Hurtom.com
Encoded date                             : UTC 2010-02-22 21:41:31
Writing application                      : mkvmerge v5.9.0 ('On The Loose') built on Dec  9 2012 15:37:01
Writing library                          : libebml v1.3.0 + libmatroska v1.4.0

Video
ID                                       : 1
Format                                   : AVC
Format/Info                              : Advanced Video Codec
Format profile                           : [email protected]
Format settings, CABAC                   : Yes
Format settings, ReFrames                : 10 frames
Codec ID                                 : V_MPEG4/ISO/AVC
Duration                                 : 1h 31mn
Bit rate                                 : 2 521 Kbps
Width                                    : 1 056 pixels
Height                                   : 570 pixels
Display aspect ratio                     : 1.85:1
Frame rate mode                          : Constant
Frame rate                               : 23.976 fps
Color space                              : YUV
Chroma subsampling                       : 4:2:0
Bit depth                                : 8 bits
Scan type                                : Progressive
Bits/(Pixel*Frame)                       : 0.175
Stream size                              : 1.57 GiB (72%)
Writing library                          : core 129 r2230 1cffe9f
Encoding settings                        : cabac=1 / ref=10 / deblock=1:0:0 / analyse=0x3:0x113 / me=umh / subme=10 / psy=1 / psy_rd=0.95:0.05 / mixed_ref=1 / me_range=32 / chroma_me=1 / trellis=2 / 8x8dct=1 / cqm=0 / deadzone=21,11 / fast_pskip=0 / chroma_qp_offset=-3 / threads=6 / lookahead_threads=1 / sliced_threads=0 / nr=0 / decimate=1 / interlaced=0 / bluray_compat=0 / constrained_intra=0 / bframes=8 / b_pyramid=2 / b_adapt=1 / b_bias=0 / direct=1 / weightb=1 / open_gop=0 / weightp=2 / keyint=240 / keyint_min=22 / scenecut=40 / intra_refresh=0 / rc=2pass / mbtree=0 / bitrate=2521 / ratetol=1.0 / qcomp=0.70 / qpmin=10 / qpmax=61 / qpstep=4 / cplxblur=20.0 / qblur=0.5 / ip_ratio=1.40 / pb_ratio=1.30 / aq=2:0.70
Language                                 : English
Default                                  : No
Forced                                   : No

Audio #1
ID                                       : 2
Format                                   : AC-3
Format/Info                              : Audio Coding 3
Mode extension                           : CM (complete main)
Format settings, Endianness              : Big
Codec ID                                 : A_AC3
Duration                                 : 1h 31mn
Bit rate mode                            : Constant
Bit rate                                 : 448 Kbps
Channel(s)                               : 6 channels
Channel positions                        : Front: L C R, Side: L R, LFE
Sampling rate                            : 48.0 KHz
Bit depth                                : 16 bits
Compression mode                         : Lossy
Stream size                              : 293 MiB (13%)
Title                                    : Ukr 448 kbps
Language                                 : Ukrainian
Default                                  : Yes
Forced                                   : No

Audio #2
ID                                       : 3
Format                                   : AC-3
Format/Info                              : Audio Coding 3
Mode extension                           : CM (complete main)
Format settings, Endianness              : Big
Codec ID                                 : A_AC3
Duration                                 : 1h 31mn
Bit rate mode                            : Constant
Bit rate                                 : 448 Kbps
Channel(s)                               : 6 channels
Channel positions                        : Front: L C R, Side: L R, LFE
Sampling rate                            : 48.0 KHz
Bit depth                                : 16 bits
Compression mode                         : Lossy
Stream size                              : 293 MiB (13%)
Title                                    : Orig., Eng 448 kbps
Language                                 : English
Default                                  : No
Forced                                   : No

Text #1
ID                                       : 4
Format                                   : UTF-8
Codec ID                                 : S_TEXT/UTF8
Codec ID/Info                            : UTF-8 Plain Text
Title                                    : Forced
Language                                 : English
Default                                  : No
Forced                                   : No

Text #2
ID                                       : 5
Format                                   : UTF-8
Codec ID                                 : S_TEXT/UTF8
Codec ID/Info                            : UTF-8 Plain Text
Title                                    : Full
Language                                 : English
Default                                  : Yes
Forced                                   : No

Text #3
ID                                       : 6
Format                                   : UTF-8
Codec ID                                 : S_TEXT/UTF8
Codec ID/Info                            : UTF-8 Plain Text
Title                                    : Full-SDH
Default                                  : No
Forced                                   : No

Menu
00:00:00.000                             : en:00:00:00.000
00:04:49.372                             : en:00:04:49.372
00:10:23.790                             : en:00:10:23.790
00:14:19.275                             : en:00:14:19.275
00:19:25.498                             : en:00:19:25.498
00:25:11.218                             : en:00:25:11.218
00:29:49.413                             : en:00:29:49.413
00:35:50.815                             : en:00:35:50.815
00:41:11.636                             : en:00:41:11.636
00:46:29.537                             : en:00:46:29.537
00:53:50.227                             : en:00:53:50.227
00:57:44.795                             : en:00:57:44.795
01:04:15.268                             : en:01:04:15.268
01:08:48.499                             : en:01:08:48.499
01:15:20.599                             : en:01:15:20.599
01:18:50.643                             : en:01:18:50.643


Скріншоти:






Джерело:
Особиста оцінка: 10 - класний мульт


 Трекер:    Зареєстрований   

Завантажити / скачати мультфільм українською



відео для новачків



 Зареєстрований:   2013-01-27 13:34
 Розмір:   2.19 GB 
 Оцінка мультфільму:   9.8/10 (Голосів: 88)
   
bot 
робот


З нами з: 30.09.07
Востаннє: 26.05.05
Повідомлень: 16031

2013-01-26 22:11  
Тему перенесено з Мультфільми до форуму Анонси релізів від Відео Гуртом


pyatachok

Explosive Boy 
Свій


З нами з: 02.01.11
Востаннє: 28.10.16
Повідомлень: 85

2013-01-27 10:31  
Таке враження, що опис мульту взагалі його не стосується((( А сам мульт - шедевральний. Давно так не сміявся) З моменту про "Сутінки" я ледь не гигнув))) Чекаю з нетерпінням
afdaser 
Свій


З нами з: 21.09.10
Востаннє: 05.12.16
Повідомлень: 108

2013-01-27 12:19  
а коли воно вийде?
pyatachok 
Координатор літератури


З нами з: 30.01.10
Востаннє: 09.12.16
Повідомлень: 1337

2013-01-27 12:22  
afdaser написано:
а коли воно вийде?
Викладу сьогодні, десь за годину...
Tarasyk 
Відео Гуртом - фільмокрай
Відео Гуртом - фільмокрай


З нами з: 26.08.09
Востаннє: 28.11.16
Повідомлень: 5972

2013-01-27 12:23  
Мультик уже вийшов: http://toloka.to/t43305
Просто тут трохи інший ріп буде.

bot 
робот


З нами з: 30.09.07
Востаннє: 26.05.05
Повідомлень: 16031

2013-01-27 13:34  
Тему перенесено з Анонси релізів від Відео Гуртом до форуму Мультфільми


pyatachok

Drool 
VIP


З нами з: 17.04.10
Востаннє: 08.12.16
Повідомлень: 1271

2013-01-28 08:19  
Це ріп від RG 25 Кадр?
Віктор 
Відео Гуртом - субтитрування
Відео Гуртом - субтитрування


З нами з: 09.01.10
Востаннє: 09.12.16
Повідомлень: 8663

2013-02-03 21:20  
Переклад тексту і пісень: Олекси Негребецького
vjachyk 
Частий відвідувач


З нами з: 12.11.07
Востаннє: 20.11.16
Повідомлень: 33

2013-02-21 21:47  
Пісня класна. Happy
rm228 
Новенький


З нами з: 20.12.10
Востаннє: 01.06.13
Повідомлень: 2

2013-05-20 15:57  
класний мульт !!! якісний і прикольний дубляж !!!
Ваш часовий пояс: GMT + 2 Години

Нова тема   Відповісти