Завантажити та скачати торренти українською


Григорій Гаркуша - Колекція (2 альбоми) (1999-2003) [FLAC] | Folk

Нові коментарі

Нова тема   Відповісти
Останній раз роздавалося Myfordownloads (2016-10-09)
Автор Повідомлення
gosha.samovar 
VIP


З нами з: 08.09.10
Востаннє: 06.12.16
Повідомлень: 400

2013-01-26 17:49  
Григорій Гаркуша - Колекція (2 альбоми) (1999-2003) [FLAC] | Folk



Стиль: Folk
Країна, місто: Україна, Київ
Пісні:
Моя Україно - 1999


    01. Моя Україно
    02. Думи мої думи...
    03. Ніч така місячна...
    04. Удовицю я любив
    05. Два кольори
    06. Взяв би я бандуру...
    07. Сміються, плачуть солов'ї
    08. Душі криниця
    09. Стоїть гора високая...
    10. Ой, чого ти, дубе...
    11. Ой, під вишнею...
    12. Рідне село
    13. Ой, кум до куми залицявся...
    14. Як надійшла любов
    15. Як засядем браття!..
    16. Мелодія
    17. Гандзя
    18. Дивлюсь я на небо
    19. Підкручу я чорнії вуса...
    20. Осіннє золото
    21. Ой, ти дівчино...
    22. Гей, ви стрільці січовії!..
    23. Тільки в Києві
EAC log
Exact Audio Copy V1.0 beta 3 from 29. August 2011

Отчёт EAC об извлечении, выполненном 10. января 2013, 11:02

Григорій Гаркуша / Моя Україно

Дисковод: PHILIPS SPD2519T Adapter: 2 ID: 0

Режим чтения : Достоверность
Использование точного потока : Да
Отключение кэша аудио : Да
Использование указателей C2 : Нет

Коррекция смещения при чтении : 6
Способность читать области Lead-in и Lead-out : Нет
Заполнение пропущенных сэмплов тишиной : Да
Удаление блоков с тишиной в начале и конце : Нет
При вычислениях CRC использовались нулевые сэмплы : Да
Интерфейс : Встроенный Win32-интерфейс для Win NT/2000

Выходной формат : Пользовательский кодировщик
Выбранный битрейт : 1024 kBit/s
Качество : Высокий
Добавление ID3-тега : Нет
Утилита сжатия : D:\soft_2\EAC\Exact Audio Copy\Flac\flac.exe
Дополнительные параметры : -V -8 -T "Date=%year%" -T "Genre=%genre%" %source%

TOC извлечённого CD

Трек | Старт | Длительность | Начальный сектор | Конечный сектор
---------------------------------------------------------------------
1 | 0:00.00 | 2:45.07 | 0 | 12381
2 | 2:45.07 | 4:15.48 | 12382 | 31554
3 | 7:00.55 | 2:53.69 | 31555 | 44598
4 | 9:54.49 | 2:31.09 | 44599 | 55932
5 | 12:25.58 | 4:39.70 | 55933 | 76927
6 | 17:05.53 | 2:29.09 | 76928 | 88111
7 | 19:34.62 | 3:39.20 | 88112 | 104556
8 | 23:14.07 | 4:00.05 | 104557 | 122561
9 | 27:14.12 | 4:20.53 | 122562 | 142114
10 | 31:34.65 | 3:27.21 | 142115 | 157660
11 | 35:02.11 | 1:39.00 | 157661 | 165085
12 | 36:41.11 | 3:13.26 | 165086 | 179586
13 | 39:54.37 | 3:28.60 | 179587 | 195246
14 | 43:23.22 | 4:02.65 | 195247 | 213461
15 | 47:26.12 | 2:26.23 | 213462 | 224434
16 | 49:52.35 | 4:57.69 | 224435 | 246778
17 | 54:50.29 | 2:03.29 | 246779 | 256032
18 | 56:53.58 | 2:55.15 | 256033 | 269172
19 | 59:48.73 | 2:11.54 | 269173 | 279051
20 | 62:00.52 | 3:03.15 | 279052 | 292791
21 | 65:03.67 | 2:51.04 | 292792 | 305620
22 | 67:54.71 | 2:33.72 | 305621 | 317167
23 | 70:28.68 | 3:42.47 | 317168 | 333864

Характеристики диапазона извлечения и сообщения об ошибках

Выбранный диапазон

Имя файла N:\Роздачі\Григорій Гаркуша\1999 - Моя Україно\Григорій Гаркуша - Моя Україно.wav

Пиковый уровень 95.1 %
Скорость извлечения 8.2 X
Качество диапазона 100.0 %
CRC теста 02332B95
CRC копии 02332B95
Копирование... OK

Ошибок не произошло

Конец отчёта

==== Контрольная сумма отчёта B8EF2F6EBFF713E83D70869D016194708E395B6AAE8A7EB13BB0452F00CBDAEE ====
AUDIOCHECKER log
AUDIOCHECKER v2.0 beta (build 457) - by Dester - [email protected]
~~~~~~~~~~~~~~~~~~~~~~~~~~~~~~~~~~

Начато: середа, 23. 01. 2013. - 12:20.33
Найдено файлов: 23

01 -===- трек 1 в приводе HL-DT-STDVD-RAM GSA-H58N
Трек успешно извлечён
Заключение: этот трек - CDDA с вероятностью 99%
Временный файл удалён.

02 -===- трек 2 в приводе HL-DT-STDVD-RAM GSA-H58N
Трек успешно извлечён
Заключение: этот трек - CDDA с вероятностью 99%
Временный файл удалён.

03 -===- трек 3 в приводе HL-DT-STDVD-RAM GSA-H58N
Трек успешно извлечён
Заключение: этот трек - CDDA с вероятностью 100%
Временный файл удалён.

04 -===- трек 4 в приводе HL-DT-STDVD-RAM GSA-H58N
Трек успешно извлечён
Заключение: этот трек - CDDA с вероятностью 100%
Временный файл удалён.

05 -===- трек 5 в приводе HL-DT-STDVD-RAM GSA-H58N
Трек успешно извлечён
Заключение: этот трек - CDDA с вероятностью 100%
Временный файл удалён.

06 -===- трек 6 в приводе HL-DT-STDVD-RAM GSA-H58N
Трек успешно извлечён
Заключение: этот трек - CDDA с вероятностью 100%
Временный файл удалён.

07 -===- трек 7 в приводе HL-DT-STDVD-RAM GSA-H58N
Трек успешно извлечён
Заключение: этот трек - CDDA с вероятностью 100%
Временный файл удалён.

08 -===- трек 8 в приводе HL-DT-STDVD-RAM GSA-H58N
Трек успешно извлечён
Заключение: этот трек - CDDA с вероятностью 99%
Временный файл удалён.

09 -===- трек 9 в приводе HL-DT-STDVD-RAM GSA-H58N
Трек успешно извлечён
Заключение: этот трек - CDDA с вероятностью 100%
Временный файл удалён.

10 -===- трек 10 в приводе HL-DT-STDVD-RAM GSA-H58N
Трек успешно извлечён
Заключение: этот трек - CDDA с вероятностью 100%
Временный файл удалён.

11 -===- трек 11 в приводе HL-DT-STDVD-RAM GSA-H58N
Трек успешно извлечён
Заключение: этот трек - CDDA с вероятностью 100%
Временный файл удалён.

12 -===- трек 12 в приводе HL-DT-STDVD-RAM GSA-H58N
Трек успешно извлечён
Заключение: этот трек - CDDA с вероятностью 100%
Временный файл удалён.

13 -===- трек 13 в приводе HL-DT-STDVD-RAM GSA-H58N
Трек успешно извлечён
Заключение: этот трек - CDDA с вероятностью 100%
Временный файл удалён.

14 -===- трек 14 в приводе HL-DT-STDVD-RAM GSA-H58N
Трек успешно извлечён
Заключение: этот трек - CDDA с вероятностью 100%
Временный файл удалён.

15 -===- трек 15 в приводе HL-DT-STDVD-RAM GSA-H58N
Трек успешно извлечён
Заключение: этот трек - CDDA с вероятностью 99%
Временный файл удалён.

16 -===- трек 16 в приводе HL-DT-STDVD-RAM GSA-H58N
Трек успешно извлечён
Заключение: этот трек - CDDA с вероятностью 100%
Временный файл удалён.

17 -===- трек 17 в приводе HL-DT-STDVD-RAM GSA-H58N
Трек успешно извлечён
Заключение: этот трек - CDDA с вероятностью 100%
Временный файл удалён.

18 -===- трек 18 в приводе HL-DT-STDVD-RAM GSA-H58N
Трек успешно извлечён
Заключение: этот трек - CDDA с вероятностью 100%
Временный файл удалён.

19 -===- трек 19 в приводе HL-DT-STDVD-RAM GSA-H58N
Трек успешно извлечён
Заключение: этот трек - CDDA с вероятностью 100%
Временный файл удалён.

20 -===- трек 20 в приводе HL-DT-STDVD-RAM GSA-H58N
Трек успешно извлечён
Заключение: этот трек - CDDA с вероятностью 100%
Временный файл удалён.

21 -===- трек 21 в приводе HL-DT-STDVD-RAM GSA-H58N
Трек успешно извлечён
Заключение: этот трек - CDDA с вероятностью 100%
Временный файл удалён.

22 -===- трек 22 в приводе HL-DT-STDVD-RAM GSA-H58N
Трек успешно извлечён
Заключение: этот трек - CDDA с вероятностью 100%
Временный файл удалён.

23 -===- трек 23 в приводе HL-DT-STDVD-RAM GSA-H58N
Трек успешно извлечён
Заключение: этот трек - CDDA с вероятностью 99%
Временный файл удалён.

Завершено: середа, 23. 01. 2013. - 12:45.48 (Время операции: 0:25.15)
Спектр
Тривалість: 01:14:12
Мова: українська
Аудіо-кодек: FLAC
Бітрейт: 761 кб/с
Видавець: КАРАВАН
Гори, гори, моя звезда... - 2003


    01. Утро туманное
    02. Колокольчики мои
    03. Только раз!..
    04. Когда я на почте служил ямщиком...
    05. Живет моя отрада...
    06. Улица, улица
    07. Старинный вальс
    08. Маритана
    09. Я встретил Вас...
    10. Эй, друг гитара!..
    11. О, если б мог выразить в звуке...
    12. Эх, Настасья!..
    13. Выйду на улицу...
    14. Бубенцы
    15. Очи черные
    16. Забыли Вы...
    17. Ямщик, не гони лошадей...
    18. Романс из музыки к телеспектаклю "Дни Турбиных"
    19. Не лукавьте!..
    20. Вдоль по Питерской!..
    21. Хризантемы
    22. Коробейники
    23. Гори, гори, моя звезда!
EAC log
Exact Audio Copy V1.0 beta 3 from 29. August 2011

Отчёт EAC об извлечении, выполненном 10. января 2013, 13:36

Григорій Гаркуша / Гори, гори, моя звезда...

Дисковод: PHILIPS SPD2519T Adapter: 2 ID: 0

Режим чтения : Достоверность
Использование точного потока : Да
Отключение кэша аудио : Да
Использование указателей C2 : Нет

Коррекция смещения при чтении : 6
Способность читать области Lead-in и Lead-out : Нет
Заполнение пропущенных сэмплов тишиной : Да
Удаление блоков с тишиной в начале и конце : Нет
При вычислениях CRC использовались нулевые сэмплы : Да
Интерфейс : Встроенный Win32-интерфейс для Win NT/2000

Выходной формат : Пользовательский кодировщик
Выбранный битрейт : 1024 kBit/s
Качество : Высокий
Добавление ID3-тега : Нет
Утилита сжатия : D:\soft_2\EAC\Exact Audio Copy\Flac\flac.exe
Дополнительные параметры : -V -8 -T "Date=%year%" -T "Genre=%genre%" %source%

TOC извлечённого CD

Трек | Старт | Длительность | Начальный сектор | Конечный сектор
---------------------------------------------------------------------
1 | 0:00.00 | 3:35.64 | 0 | 16188
2 | 3:35.64 | 2:32.10 | 16189 | 27598
3 | 6:07.74 | 3:47.56 | 27599 | 44679
4 | 9:55.55 | 5:27.05 | 44680 | 69209
5 | 15:22.60 | 1:44.39 | 69210 | 77048
6 | 17:07.24 | 2:43.17 | 77049 | 89290
7 | 19:50.41 | 2:48.05 | 89291 | 101895
8 | 22:38.46 | 3:22.59 | 101896 | 117104
9 | 26:01.30 | 4:15.58 | 117105 | 136287
10 | 30:17.13 | 3:14.66 | 136288 | 150903
11 | 33:32.04 | 2:03.07 | 150904 | 160135
12 | 35:35.11 | 1:53.28 | 160136 | 168638
13 | 37:28.39 | 3:58.54 | 168639 | 186542
14 | 41:27.18 | 3:26.67 | 186543 | 202059
15 | 44:54.10 | 1:53.18 | 202060 | 210552
16 | 46:47.28 | 3:37.59 | 210553 | 226886
17 | 50:25.12 | 3:44.35 | 226887 | 243721
18 | 54:09.47 | 3:58.15 | 243722 | 261586
19 | 58:07.62 | 3:09.13 | 261587 | 275774
20 | 61:17.00 | 2:30.35 | 275775 | 287059
21 | 63:47.35 | 3:16.73 | 287060 | 301832
22 | 67:04.33 | 2:58.50 | 301833 | 315232
23 | 70:03.08 | 2:55.29 | 315233 | 328386

Характеристики диапазона извлечения и сообщения об ошибках

Выбранный диапазон

Имя файла N:\Роздачі\Григорій Гаркуша\2003 - Гори, гори, моя звезда\Григорій Гаркуша - Гори, гори, моя звезда....wav

Пиковый уровень 96.0 %
Скорость извлечения 5.1 X
Качество диапазона 100.0 %
CRC теста DA9F6CB0
CRC копии DA9F6CB0
Копирование... OK

Ошибок не произошло

Конец отчёта

==== Контрольная сумма отчёта 489F904F594F7E1968457F52D4D831E83B4F7B6354FD62DD09D8785E08AC030D ====
AUDIOCHECKER log
AUDIOCHECKER v2.0 beta (build 457) - by Dester - [email protected]
~~~~~~~~~~~~~~~~~~~~~~~~~~~~~~~~~~
Начато: середа, 23. 01. 2013. - 22:09.46
Найдено файлов: 23

01 -===- трек 1 в приводе HL-DT-STDVD-RAM GSA-H58N
Трек успешно извлечён
Заключение: этот трек - CDDA с вероятностью 99%
Временный файл удалён.

02 -===- трек 2 в приводе HL-DT-STDVD-RAM GSA-H58N
Трек успешно извлечён
Заключение: этот трек - CDDA с вероятностью 100%
Временный файл удалён.

03 -===- трек 3 в приводе HL-DT-STDVD-RAM GSA-H58N
Трек успешно извлечён
Заключение: этот трек - CDDA с вероятностью 99%
Временный файл удалён.

04 -===- трек 4 в приводе HL-DT-STDVD-RAM GSA-H58N
Трек успешно извлечён
Заключение: этот трек - CDDA с вероятностью 100%
Временный файл удалён.

05 -===- трек 5 в приводе HL-DT-STDVD-RAM GSA-H58N
Трек успешно извлечён
Заключение: этот трек - CDDA с вероятностью 100%
Временный файл удалён.

06 -===- трек 6 в приводе HL-DT-STDVD-RAM GSA-H58N
Трек успешно извлечён
Заключение: этот трек - CDDA с вероятностью 100%
Временный файл удалён.

07 -===- трек 7 в приводе HL-DT-STDVD-RAM GSA-H58N
Трек успешно извлечён
Заключение: этот трек - CDDA с вероятностью 100%
Временный файл удалён.

08 -===- трек 8 в приводе HL-DT-STDVD-RAM GSA-H58N
Трек успешно извлечён
Заключение: этот трек - CDDA с вероятностью 100%
Временный файл удалён.

09 -===- трек 9 в приводе HL-DT-STDVD-RAM GSA-H58N
Трек успешно извлечён
Заключение: этот трек - CDDA с вероятностью 100%
Временный файл удалён.

10 -===- трек 10 в приводе HL-DT-STDVD-RAM GSA-H58N
Трек успешно извлечён
Заключение: этот трек - CDDA с вероятностью 99%
Временный файл удалён.

11 -===- трек 11 в приводе HL-DT-STDVD-RAM GSA-H58N
Трек успешно извлечён
Заключение: этот трек - CDDA с вероятностью 100%
Временный файл удалён.

12 -===- трек 12 в приводе HL-DT-STDVD-RAM GSA-H58N
Трек успешно извлечён
Заключение: этот трек - CDDA с вероятностью 100%
Временный файл удалён.

13 -===- трек 13 в приводе HL-DT-STDVD-RAM GSA-H58N
Трек успешно извлечён
Заключение: этот трек - CDDA с вероятностью 100%
Временный файл удалён.

14 -===- трек 14 в приводе HL-DT-STDVD-RAM GSA-H58N
Трек успешно извлечён
Заключение: этот трек - CDDA с вероятностью 100%
Временный файл удалён.

15 -===- трек 15 в приводе HL-DT-STDVD-RAM GSA-H58N
Трек успешно извлечён
Заключение: этот трек - CDDA с вероятностью 100%
Временный файл удалён.

16 -===- трек 16 в приводе HL-DT-STDVD-RAM GSA-H58N
Трек успешно извлечён
Заключение: этот трек - CDDA с вероятностью 99%
Временный файл удалён.

17 -===- трек 17 в приводе HL-DT-STDVD-RAM GSA-H58N
Трек успешно извлечён
Заключение: этот трек - CDDA с вероятностью 100%
Временный файл удалён.

18 -===- трек 18 в приводе HL-DT-STDVD-RAM GSA-H58N
Трек успешно извлечён
Заключение: этот трек - CDDA с вероятностью 99%
Временный файл удалён.

19 -===- трек 19 в приводе HL-DT-STDVD-RAM GSA-H58N
Трек успешно извлечён
Заключение: этот трек - CDDA с вероятностью 100%
Временный файл удалён.

20 -===- трек 20 в приводе HL-DT-STDVD-RAM GSA-H58N
Трек успешно извлечён
Заключение: этот трек - CDDA с вероятностью 100%
Временный файл удалён.

21 -===- трек 21 в приводе HL-DT-STDVD-RAM GSA-H58N
Трек успешно извлечён
Заключение: этот трек - CDDA с вероятностью 99%
Временный файл удалён.

22 -===- трек 22 в приводе HL-DT-STDVD-RAM GSA-H58N
Трек успешно извлечён
Заключение: этот трек - CDDA с вероятностью 99%
Временный файл удалён.

23 -===- трек 23 в приводе HL-DT-STDVD-RAM GSA-H58N
Ошибка: при извлечении аудио произошли ошибки джиттера

Процесс прерван пользователем!

Завершено: середа, 23. 01. 2013. - 22:33.15 (Время операции: 0:23.28)
Спектр
Тривалість: 01:12:58
Мова: російська
Аудіо-кодек: FLAC
Бітрейт: 754 кб/с
Видавець: Григорій Гаркуша
Тривалість: 02:27:10
Мова: українська, російська
Аудіо-кодек: FLAC
Бітрейт: 761 - 754 кб/с
Джерело: Власні ріпи власних дисків
Додаткова інформація
Григорій Гаркуша

Народний артист України. Професор Національної музичної академії імені Чайковського. Має кілька сольних програм, за його участю студія «Укртелефільм» створила фільми «Пісні пам'яті», «Концерт української народної пісні», «Мир дому твоєму» та інші. Записав платівку-гігант із народними піснями, компакт-диски «Моя Україно» та «Гори, гори, моя звезда».
Неодноразово гастролював у різних країнах світу: США, Канада, Італія, Фінляндія, Норвегія, Ірак, В'єтнам...

За радянських часів випускник Московської консерваторії імені Чайковського разом iз дипломом отримував перепустку до найпрестижніших оперних театрів країни. А якщо в твоєму репертуарі вже були партії Князя Ігоря, Фігаро, Онєгіна, Жермона — то і про місце в основному складі можна було не хвилюватися. У 1971 році Григорій Гаркуша мав і диплом консерваторії, і арії у своєму творчому активі. (А до цього закінчив Дніпропетровське музичне училище). Але Григорій Якимович обрав Київ, і перемігши в конкурсі, був зарахований солістом до Національної фiлармонії. Наскільки той вибір був вдалим? На це питання відповів час. Цього року соліст Національної філармонії Григорій Гаркуша відзначає аж два ювілеї — свої 65 та 40-річчя творчої діяльності. Дуже хоче влаштувати творчий вечір в «Україні» («Хоча не знаю, — зізнається Гаркуша, — чи вийде так, як планую, адже оренда «України» — більше п'ятдесяти тисяч гривень, треба ж спершу знайти ці гроші»). Утім перед ювілейним урочистостями, які мають відбутися у квітні, Гаркушу чекає ще одна відповідальна подія: концерт «На здобуття Національної премії імені Тараса Шевченка 2006 року».
У програмі — ледь не вся світова оперна класика: Гендель, Бах, Гріг, Рахманінов, Глюк... Виконуватиме Гаркуша і твори українських авторів — Стеценка, Данькевича, Скорика, Білаша, Поклада, народні українські пісні. Разом із Григорієм Гаркушою на сцену вийдуть Національний оркестр народних інструментів, хор імені Майбороди, а також — дружина, Людмила Гаркуша, що звично акомпануватиме чоловікові на фортепіано.
Якщо Ви справді бажаєте підтримати українське - після прослуховування, якщо музика вам сподобалась, придбайте ліцензійний диск. Підтримаймо вітчизняних виконавців!


Срібний реліз (на рейтинг впливає 50% завантаженого)
 Трекер:    Зареєстрований   

Завантажити / скачати українську музику



відео для новачків



 Зареєстрований:   2013-01-26 17:49
 Розмір:   834 MB 
 Оцінка музики:   6.6/10 (Голосів: 7)
   
bohun 
VIP


З нами з: 21.03.09
Востаннє: 06.12.16
Повідомлень: 271

2013-01-26 20:17  
Чудова була б музика, якби не балалайки, вони їх "впхали" в кожну композицію, ще й сольну партію дали... А так - чудові українські пісні у виконанні чудового українського співака.

Додано через 5 хвилин 51 секунду:

Це я про диск "Моя Україно", думаю, ви зрозуміли Happy

ssTAss 
Модератор музики


З нами з: 05.07.08
Востаннє: 06.12.16
Повідомлень: 10946

2013-01-27 01:36  
gosha.samovar написано:
Видавець: Григорій Гаркуша

Rolleyes (2)
перший диск видав Караван CD (KCD 091)
можливо переплутали рядки виконавець і видавець?

gosha.samovar 
VIP


З нами з: 08.09.10
Востаннє: 06.12.16
Повідомлень: 400

2013-01-27 13:57  
Цитата:
ssTAss
Rolleyes (2)
перший диск видав Караван CD (KCD 091)
можливо переплутали рядки виконавець і видавець?

Я бачив каталожний номер, але ж що означає
ось це?

ssTAss 
Модератор музики


З нами з: 05.07.08
Востаннє: 06.12.16
Повідомлень: 10946

2013-01-27 18:51  
gosha.samovar написано:
Я бачив каталожний номер, але ж що означає

копірайт, права і все інше
а видавець Караван

gosha.samovar 
VIP


З нами з: 08.09.10
Востаннє: 06.12.16
Повідомлень: 400

2013-01-27 22:24  
Добре, я виправив.
Клятий копірайт тільки й здатен, щоб голову дурити Rolleyes (1)

kora_22 
Новенький


З нами з: 04.10.11
Востаннє: 04.12.16
Повідомлень: 2

2014-10-12 23:34  
Не можу скачати - ніхто не роздає((( а дуже треба!
gosha.samovar 
VIP


З нами з: 08.09.10
Востаннє: 06.12.16
Повідомлень: 400

2014-10-13 00:03  
Завтра включу десь о 9.
waldi-hurtom 
VIP


З нами з: 07.10.12
Востаннє: 05.12.16
Повідомлень: 611

2016-03-30 21:16  
Другий альбом треба викинути взагалі - жодної української пісні. Сюди ще кобзона повне зібрання додайте!
Першй альбом - трійочка з мінусом, спів посередній, бездушний, а кацапське аранжування просто добиває. Ну і лосліс для архіних записів - нонсенс. Аби прослухати перекодував у 256 бітрейт. Вдруге слухати точно не буду. Видаляю, сміття.

gosha.samovar 
VIP


З нами з: 08.09.10
Востаннє: 06.12.16
Повідомлень: 400

2016-03-30 22:20  
waldi-hurtom
Дякую, дуже приємний відгук.

Ваш часовий пояс: GMT + 2 Години

Нова тема   Відповісти