Завантажити та скачати торренти українською


Молодіжний хор "Осанна" - З любов'ю, для Вас (20??) [FLAC] | Chorus, Instrumental

Нові коментарі

Нова тема   Відповісти
Автор Повідомлення
bohun 
VIP


З нами з: 21.03.09
Востаннє: 06.12.16
Повідомлень: 271

2013-01-25 20:59  
Молодіжний хор "Осанна" - З любов'ю, для Вас (20??) [FLAC] | Chorus, Instrumental

Молодіжний хор "Осанна" - З любов'ю, для Вас (20??) [FLAC] | Chorus, Instrumental


Стиль: Classic
Країна, місто: Україна, Івано-Франківськ
Видавець: "Свічадо"
Виконавці:

Сопрано:
    Калитка Віра
    Каяцкайте Даля
    Ксенюк Оксана
    Кубік Олеся
    Луцишин Наталя
    Главач Таня
    Судомир Іванна
    Бродович Марічка

Альти:
    Бідочка Мар'яна
    Босацька Наталя
    Ватаманюк Оксана
    Гураль Віталія
    Івасишин Уляна
    Карач Христя
    Кельбас Наталя
    Мельникович Ірина
    Цідило Оксана
    Терлецька Галина

Тенори:
    Кубік Дмитро
    Цимбалістий Микола
    Соколовський Володимир
    Сеник Роман
    Копельчак Юрій
    Сало Тарас
    Нагрудний Андрій
    Цідило Василь
    Горогоцький Дмитро

Баси:
    Шкандрій Тарас
    Мельниченко Юрій
    Маланюк Андрій
    Бабчук Андрій
    Петранюк Андрій
    Прокіпчин Ярослав

Склад хору:
    Реґент: Любов Терлецька
    Художній керівник: Галина Терлецька
    Концертмейстер: Іванна Судомир
Пісні:
    1. Прийди із неба, Святий Духу
    2. Благослови
    3. Концерт XVI "Вознесу Тя", Д. Бортнянського
    4. Благослови, душе моя, Господа
    5. Через поле
    6. Богородице Діво
    7. С нами Бог
    8. Пречиста Діва
    9. Пасли пастирі
    10. Нині Рождество
    11. Czemus smutna
    12. Повіруй мені
    13. Разом
    14. Чарівна скрипка
    15. Вишиванка
    16. Під облачком
    17. Висока верба
    18. Світи, місяченьку
    19. На Івана
    20. Коломийки
    21. Арія Андрія з опери "Запорожець за Дунаєм"
    22. Господи, помилуй
Звіт EAC
Exact Audio Copy V1.0 beta 3 from 29. August 2011

EAC extraction logfile from 16. January 2013, 23:51

Молодіжний хор 'Осанна' / З любов'ю, для Вас

Used drive : TSSTcorpCDDVDW TS-L633F Adapter: 0 ID: 1

Read mode : Secure
Utilize accurate stream : Yes
Defeat audio cache : Yes
Make use of C2 pointers : No

Read offset correction : 6
Overread into Lead-In and Lead-Out : No
Fill up missing offset samples with silence : Yes
Delete leading and trailing silent blocks : No
Null samples used in CRC calculations : Yes
Used interface : Native Win32 interface for Win NT & 2000

Used output format : User Defined Encoder
Selected bitrate : 896 kBit/s
Quality : High
Add ID3 tag : No
Command line compressor : C:\Users\Микола\Desktop\EAC_1.0_beta_3_Portable_Multilingual\EAC_1.0_beta_3_Portable_Multilingual\App\EAC\FLAC\flac.exe
Additional command line options : -6 -V -T "ARTIST=%artist%" -T "TITLE=%title%" -T "ALBUM=%albumtitle%" -T "DATE=%year%" -T "TRACKNUMBER=%tracknr%" -T "GENRE=%genre%" -T "COMMENT=%comment%" %hascover%--picture="%coverfile%"%hascover% %source% -o %dest%

TOC of the extracted CD

Track | Start | Length | Start sector | End sector
---------------------------------------------------------
1 | 0:00.00 | 2:28.32 | 0 | 11131
2 | 2:28.32 | 1:54.48 | 11132 | 19729
3 | 4:23.05 | 4:52.52 | 19730 | 41681
4 | 9:15.57 | 1:51.19 | 41682 | 50025
5 | 11:07.01 | 3:21.45 | 50026 | 65145
6 | 14:28.46 | 3:57.65 | 65146 | 82985
7 | 18:26.36 | 2:29.55 | 82986 | 94215
8 | 20:56.16 | 3:22.07 | 94216 | 109372
9 | 24:18.23 | 2:50.10 | 109373 | 122132
10 | 27:08.33 | 2:25.51 | 122133 | 133058
11 | 29:34.09 | 2:53.05 | 133059 | 146038
12 | 32:27.14 | 2:09.32 | 146039 | 155745
13 | 34:36.46 | 2:53.33 | 155746 | 168753
14 | 37:30.04 | 3:00.41 | 168754 | 182294
15 | 40:30.45 | 2:49.54 | 182295 | 195023
16 | 43:20.24 | 4:15.24 | 195024 | 214172
17 | 47:35.48 | 2:03.71 | 214173 | 223468
18 | 49:39.44 | 3:08.23 | 223469 | 237591
19 | 52:47.67 | 2:35.19 | 237592 | 249235
20 | 55:23.11 | 2:54.61 | 249236 | 262346
21 | 58:17.72 | 4:17.16 | 262347 | 281637
22 | 62:35.13 | 5:00.72 | 281638 | 304209

Range status and errors

Selected range

Filename F:\hurtom\Молодіжний хор 'Осанна' - З любов'ю, для Вас [FLAC]\Молодіжний хор 'Осанна' - З любов'ю, для Вас.wav

Peak level 98.8 %
Extraction speed 3.2 X
Range quality 100.0 %
Test CRC 1BBAECC7
Copy CRC 1BBAECC7
Copy OK

No errors occurred

End of status report

==== Log checksum 47FF75FE9C2DFCB1BB76ECCD0BAF1984DC2A431A24F3A61307C6AF84ACFB0982 ====
Тривалість: 01:07:36
Мова: українська, крім (11) - польська
Бітрейт: 722 кбіт/с
Джерело: Власний ріп
Додаткова інформація:
До цього компакт диску увійшли твори, запис яких здійснено під час ювілейного концерту до 10-річчя хору (листопад, 2007 р. Б.), а також твори, записані після поїздки з благодійними концертами до Відня, міст Німеччини та Польщі для потреб Госпісу (січень, 2009 р. Б.).


Якщо Ви справді бажаєте підтримати українське - після прослуховування, якщо музика вам сподобалась, придбайте ліцензійний диск. Підтримаймо вітчизняних виконавців!


Срібний реліз (на рейтинг впливає 50% завантаженого)
 Трекер:    Зареєстрований   

Завантажити / скачати українську музику



відео для новачків



 Зареєстрований:   2013-01-25 20:59
 Розмір:   364 MB 
 Оцінка музики:   10/10 (Голосів: 3)
   
bohun 
VIP


З нами з: 21.03.09
Востаннє: 06.12.16
Повідомлень: 271

2013-01-25 21:02  
ssTAss 
Модератор музики


З нами з: 05.07.08
Востаннє: 07.12.16
Повідомлень: 10947

2013-01-25 21:15  
додайте, будь ласка, вміст лог-файлу під спойлер
bohun 
VIP


З нами з: 21.03.09
Востаннє: 06.12.16
Повідомлень: 271

2013-01-25 21:30  
Цитата:
вміст лог-файлу під спойлер

ой, точно, забув,... можливо ще треба зробити стільки ж lossless роздач, скільки зробив до цього, тоді запам'ятаю)). А чи немає можливості для майстра створення lossless роздач додати пункт з вмістом лог-файла? Пункт ніби й обов'язковий, а в майстрі немає.

Ваш часовий пояс: GMT + 2 Години

Нова тема   Відповісти