Завантажити та скачати торренти українською


Молодіжний хор "Осанна" - Magnificat (20??) [FLAC] | Chorus, Instrumental

Нові коментарі

Нова тема   Відповісти
Останній раз роздавалося bohun (2016-12-02)
Автор Повідомлення
bohun 
VIP


З нами з: 21.03.09
Востаннє: 01.12.16
Повідомлень: 271

2013-01-24 20:52  
Молодіжний хор "Осанна" - Magnificat (20??) [FLAC] | Chorus, Instrumental

Молодіжний хор "Осанна" - Magnificat (20??) [FLAC] | Chorus, Instrumental


Стиль: Classic Christian
Країна, місто: Україна, Івано-Франківськ
Видавець: "Свічадо"
Виконавці:
Солісти

    Надія Грицюк (1, 4, 8, 13, 14)
    Сергій Слижук (1, 14)
    с. Марія Християнка Дем'янчук, Згромадження сестер Служебниць Господа і Діви Марії з Матара (9, 11)
    Мар'яна Калитка (2, 12, 13)
    Тарас Шкандрій (6, 10)
    Галина Семенишин (4, 13)
    Ольга Олійник (5)
    Олександр Кубік (13)
Музиканти
    сопілка - Василь Бурій
    флейта - Юрій Буляк
    кларнет - Степан Шовгенюк
    труба - Степан Бойко
    тромбон - Сергій Гук
    гітара - Роман Готра
    фортепіано, орган - Ольга Макар
    перша скрипка - Любов Литвичнук (1, 8, 11, 13, 14), Мирослав Федина (7)
    друга скрипка - Наталія Рущак
    третя скрипка - Олена Безпалова
    віолончель - Володимир Банашек (7), Ірина Бородюх (1, 11), Тарас Турянський
Хор "Осанна"

Сопрано:
    1. Даля Каяцкайте
    2. Віра Калитка
    3. Надія Грицюк
    4. Ольга Макар
    5. Мар'яна Калитка
    6. Оксана Ксенюк
    7. Любов Худин

Альти:
    1. Олена Рубановська
    2. Лілія Тузик
    3. Христина Карач
    4. Галина Семенишин
    5. Оксана Бережницька
    6. Галина Терлецька
    7. Наталія Золотарук

Тенори:
    1. Олександр Кубік
    2. Юрій Копельчак
    3. Іван Никитюк
    4. Василь Цідило

Баси:
    1. Андрій Маланюк
    2. Андрій Бабчук
    3. Андрій Петранюк
    4. Юрій Мельниченко
    5. Тарас Шкандрій
    6. Василь Тхорик

Реґент: Любов Терлецька
Текст читає: Михайло Віхоть
Пісні:
    1. Радуйся, Маріє (Ave Maria)
    2. Господу хвала (Bless the Lord)
    3. Тільки в Господі (El Senyor)
    4. Благом є (Bonum est)
    5. Милосердя Господа (Misericodias Domini)
    6. Залишись (Bleibet hier)
    7. Страдальна Мати (Stabat Mater)
    8. Ісусе Христе (Jesus le Christ)
    9. Крізь ніч (De noche iremos)
    10. Близько Господь (Wait for the Lord)
    11. Нехай ніщо (Nada te turbe)
    12. Душа, в якій живе любов (El alma que anda en amor)
    13. Величає душа моя (Magnificat)
    14. Ave Maria
Звіт EAC
Exact Audio Copy V1.0 beta 3 from 29. August 2011

EAC extraction logfile from 17. January 2013, 0:31

Молодіжний хор 'Осанна' / Magnificat

Used drive : TSSTcorpCDDVDW TS-L633F Adapter: 0 ID: 1

Read mode : Secure
Utilize accurate stream : Yes
Defeat audio cache : Yes
Make use of C2 pointers : No

Read offset correction : 6
Overread into Lead-In and Lead-Out : No
Fill up missing offset samples with silence : Yes
Delete leading and trailing silent blocks : No
Null samples used in CRC calculations : Yes
Used interface : Native Win32 interface for Win NT & 2000

Used output format : User Defined Encoder
Selected bitrate : 896 kBit/s
Quality : High
Add ID3 tag : No
Command line compressor : C:\Users\Микола\Desktop\EAC_1.0_beta_3_Portable_Multilingual\EAC_1.0_beta_3_Portable_Multilingual\App\EAC\FLAC\flac.exe
Additional command line options : -6 -V -T "ARTIST=%artist%" -T "TITLE=%title%" -T "ALBUM=%albumtitle%" -T "DATE=%year%" -T "TRACKNUMBER=%tracknr%" -T "GENRE=%genre%" -T "COMMENT=%comment%" %hascover%--picture="%coverfile%"%hascover% %source% -o %dest%

TOC of the extracted CD

Track | Start | Length | Start sector | End sector
---------------------------------------------------------
1 | 0:00.00 | 4:56.31 | 0 | 22230
2 | 4:56.31 | 4:16.22 | 22231 | 41452
3 | 9:12.53 | 2:59.57 | 41453 | 54934
4 | 12:12.35 | 2:16.22 | 54935 | 65156
5 | 14:28.57 | 2:23.23 | 65157 | 75904
6 | 16:52.05 | 3:29.67 | 75905 | 91646
7 | 20:21.72 | 3:55.68 | 91647 | 109339
8 | 24:17.65 | 2:24.21 | 109340 | 120160
9 | 26:42.11 | 3:32.51 | 120161 | 136111
10 | 30:14.62 | 2:24.21 | 136112 | 146932
11 | 32:39.08 | 3:48.63 | 146933 | 164095
12 | 36:27.71 | 2:26.07 | 164096 | 175052
13 | 38:54.03 | 2:03.74 | 175053 | 184351
14 | 40:58.02 | 4:49.13 | 184352 | 206039

Range status and errors

Selected range

Filename F:\hurtom\Молодіжний хор 'Осанна' - Magnificat [FLAC]\Молодіжний хор 'Осанна' - Magnificat.wav

Peak level 66.2 %
Extraction speed 3.5 X
Range quality 100.0 %
Test CRC 999C4620
Copy CRC 999C4620
Copy OK

No errors occurred

End of status report

==== Log checksum 480E6F2988BAAB2EF81B05A33C3CA4A7FDA6020BAE3BC2171DC1F2ECD9A3756D ====
Тривалість: 00:45:47
Мова: латинська (1, 13, 14), українська (2-12)
Аудіо-кодек: FLAC
Бітрейт: 672 кбіт/с
Джерело: Власний ріп
Додаткова інформація: (з буклету)
Молодіжний церковний хор "Осанна" заснований в листопаді 1997 року при церкві Царя Христа монастиря о. Василіян. До репертуару хору входять як старовинні церковні наспіви, твори класиків української духовної музики, так і обробки народних пісень, твори сучасних українських та зарубіжних композиторів. Хористи - це переважно учнівська і студентська молодь. Реґент, Любов Терлецька, випускниця Теологічної Академії м. Івано-Франківська, Прикарпатського національного університету ім. В. Стефаника та Львівської державної музичної академії ім. М. В. Лисенка


Якщо Ви справді бажаєте підтримати українське - після прослуховування, якщо музика вам сподобалась, придбайте ліцензійний диск. Підтримаймо вітчизняних виконавців!


Срібний реліз (на рейтинг впливає 50% завантаженого)
 Трекер:    Зареєстрований   

Завантажити / скачати українську музику



відео для новачків



 Зареєстрований:   2013-01-24 20:52
 Розмір:   227 MB 
 Оцінка музики:   10/10 (Голосів: 5)
   
bohun 
VIP


З нами з: 21.03.09
Востаннє: 01.12.16
Повідомлень: 271

2013-01-25 21:04  
Ваш часовий пояс: GMT + 2 Години

Нова тема   Відповісти