Завантажити та скачати торренти українською


Молодіжний хор "Осанна" - Акафіст до Унівської чудотворної ікони Богородиці (20??) [FLAC] | Chorus

Нові коментарі

Нова тема   Відповісти
Автор Повідомлення
bohun 
VIP


З нами з: 21.03.09
Востаннє: 01.12.16
Повідомлень: 271

2013-01-23 22:10  
Молодіжний хор "Осанна" - Акафіст до Унівської чудотворної ікони Богородиці (20??) [FLAC] | Chorus

Молодіжний хор "Осанна" - Акафіст до Унівської чудотворної ікони Богородиці (20??) [FLAC] | Chorus


Стиль: Christian Chorus
Країна, місто: Україна, Івано-Франківськ
Видавець: Свічадо
Виконавці:

Сопрано:
    1. Каяцкайте Даля
    2. Ксенюк Оксана
    3. Кубік Олеся
    4. Тхорик Ольга
    5. Луцишин Наталія
    6. Бабінчук Оксана
    7. Главач Тетяна
    8. Івасів Любов
    9. Худин Любов

Альти:
    1. Бережницька Оксана
    2. Бідочка Мар'яна
    3. Гураль Віталія
    4. Босацька Наталія
    5. Ватаманюк Оксана
    6. Івасишин Уляна
    7. Карач Христина
    8. Кельбас Наталія
    9. Рубановська Олена
    10. Терлецька Галина

Тенори:
    1. Горогоцький Дмитро
    2. Кубік Олександр
    3. Копельчак Юрій
    4. Цимбалістий Микола
    5. Цідило Василь
    6. Сеник Роман

Баси:
    1. Білейчук Тарас
    2. Маланюк Андрій
    3. Мельниченко Юрій
    4. Петранюк Андрій
    5. Шкандрій Тарас

Солісти: Ієрм. Лука Михайлович, Тарас Шкандрій (бас), Цимбалістий Микола (тенор)
Реґент: Терлецька Любов
Cписок пісень:
    відсутній на обкладинці
Звіт EAC
Exact Audio Copy V1.0 beta 3 from 29. August 2011

EAC extraction logfile from 18. January 2013, 0:47

Молодіжний хор 'Осанна' / Акафіст

Used drive : TSSTcorpCDDVDW TS-L633F Adapter: 0 ID: 1

Read mode : Secure
Utilize accurate stream : Yes
Defeat audio cache : Yes
Make use of C2 pointers : No

Read offset correction : 6
Overread into Lead-In and Lead-Out : No
Fill up missing offset samples with silence : Yes
Delete leading and trailing silent blocks : No
Null samples used in CRC calculations : Yes
Used interface : Native Win32 interface for Win NT & 2000

Used output format : User Defined Encoder
Selected bitrate : 896 kBit/s
Quality : High
Add ID3 tag : No
Command line compressor : D:\Dropbox\portable\EAC_1.0_beta_3_Portable_Multilingual\EAC_1.0_beta_3_Portable_Multilingual\App\EAC\FLAC\flac.exe
Additional command line options : -6 -V -T "ARTIST=%artist%" -T "TITLE=%title%" -T "ALBUM=%albumtitle%" -T "DATE=%year%" -T "TRACKNUMBER=%tracknr%" -T "GENRE=%genre%" -T "COMMENT=%comment%" %hascover%--picture="%coverfile%"%hascover% %source% -o %dest%

TOC of the extracted CD

Track | Start | Length | Start sector | End sector
---------------------------------------------------------
1 | 0:00.00 | 1:20.26 | 0 | 6025
2 | 1:20.26 | 1:16.46 | 6026 | 11771
3 | 2:36.72 | 1:14.04 | 11772 | 17325
4 | 3:51.01 | 2:23.69 | 17326 | 28119
5 | 6:14.70 | 3:00.04 | 28120 | 41623
6 | 9:14.74 | 0:55.01 | 41624 | 45749
7 | 10:10.00 | 2:37.61 | 45750 | 57585
8 | 12:47.61 | 1:03.45 | 57586 | 62355
9 | 13:51.31 | 2:53.27 | 62356 | 75357
10 | 16:44.58 | 0:52.72 | 75358 | 79329
11 | 17:37.55 | 2:43.33 | 79330 | 91587
12 | 20:21.13 | 0:56.31 | 91588 | 95818
13 | 21:17.44 | 2:54.23 | 95819 | 108891
14 | 24:11.67 | 0:52.10 | 108892 | 112801
15 | 25:04.02 | 3:16.12 | 112802 | 127513
16 | 28:20.14 | 0:53.32 | 127514 | 131520
17 | 29:13.46 | 2:50.06 | 131521 | 144276
18 | 32:03.52 | 0:53.55 | 144277 | 148306
19 | 32:57.32 | 2:36.22 | 148307 | 160028
20 | 35:33.54 | 0:57.56 | 160029 | 164359
21 | 36:31.35 | 2:51.39 | 164360 | 177223
22 | 39:22.74 | 0:50.00 | 177224 | 180973
23 | 40:12.74 | 2:48.65 | 180974 | 193638
24 | 43:01.64 | 1:02.42 | 193639 | 198330
25 | 44:04.31 | 2:40.15 | 198331 | 210345
26 | 46:44.46 | 1:10.42 | 210346 | 215637
27 | 47:55.13 | 3:14.14 | 215638 | 230201
28 | 51:09.27 | 1:55.22 | 230202 | 238848
29 | 53:04.49 | 0:52.02 | 238849 | 242750
30 | 53:56.51 | 3:49.40 | 242751 | 259965
31 | 57:46.16 | 0:17.36 | 259966 | 261276
32 | 58:03.52 | 3:58.15 | 261277 | 279141
33 | 62:01.67 | 2:13.50 | 279142 | 289166

Range status and errors

Selected range

Filename F:\hurtom\Молодіжний хор 'Осанна' - Акафіст до Унівської чудотворної ікони Богородиці [FLAC]\Молодіжний хор 'Осанна' - Акафіст.wav

Peak level 97.7 %
Extraction speed 4.2 X
Range quality 100.0 %
Test CRC 3DEE4C24
Copy CRC 3DEE4C24
Copy OK

No errors occurred

End of status report

==== Log checksum 7428F34D16D92758487DE5A14F52913C4FC36A3E9E37FE84BB1F770F0AC5DA89 ====
Тривалість: 01:04:15
Мова: українська
Аудіо-кодек: FLAC
Бітрейт: 664 кбіт/с
Джерело: Власний ріп


Срібний реліз (на рейтинг впливає 50% завантаженого)
 Трекер:    Зареєстрований   

Завантажити / скачати українську музику



відео для новачків



 Зареєстрований:   2013-01-23 22:11
 Розмір:   315 MB 
 Оцінка музики:   10/10 (Голосів: 4)
   
ssTAss 
Модератор музики


З нами з: 05.07.08
Востаннє: 03.12.16
Повідомлень: 10930

2013-01-23 22:27  
пропустили рік в назві
також обов'язково має бути рядок "Видавець"
bohun написано:
Cписок пісень: відсутній на обкладинці

хм, бачу еас визначив 33 треки
ніде по інтернетрях нема трек-лісту?

bohun 
VIP


З нами з: 21.03.09
Востаннє: 01.12.16
Повідомлень: 271

2013-01-23 22:53  
Цитата:
пропустили рік в назві

його немає на обкладинці...
Цитата:
також обов'язково має бути рядок "Видавець"

єдиний напис на коробці, який можна вважати інформацією про видавця є "ПП. ММС "Свічадо"", хоча я не впевнений, що це те, що треба.

bohun 
VIP


З нами з: 21.03.09
Востаннє: 01.12.16
Повідомлень: 271

2013-01-25 21:05  
Ваш часовий пояс: GMT + 2 Години

Нова тема   Відповісти