Завантажити та скачати торренти українською


Seahorse - Watch A Seahorse Give Birth [EP] (2012) [FLAC] | Post-Punk

Нові коментарі

Нова тема   Відповісти
Останній раз роздавалося maxnet (2016-03-11)
Автор Повідомлення
muhomor 
VIP


З нами з: 04.12.11
Востаннє: 29.11.16
Повідомлень: 297

2013-01-23 09:42  
Seahorse - Watch A Seahorse Give Birth [EP] (2012) [FLAC] | Post-Punk

Seahorse - Watch A Seahorse Give Birth [EP] (2012) [FLAC] | Post-Punk


Стиль: 80's Wave, Post-Punk
Країна, місто: Україна, Київ
Сайти: myspace
Видавець: гурт видав платівку самотужки
Виконавці:
Діма Машкін - вокал
Микита Мєкалін - гітара
Ігор Богатий - бас /синтезатор
Денис Крамаренко - барабани
Пісні:
    01. Magical Sun
    02. Mirrors Mors
    03. Kitsch Me
    04. Wish
    05. Forest
    06. I Feel
    Audiochecker


    AUDIOCHECKER v2.0 beta (build 457) - by Dester - [email protected]
    ~~~~~~~~~~~~~~~~~~~~~~~~~~~~~~~~~~

    Started at: среда, 23. 01. 2013. - 9:36.08
    6 files found

    1 -===- D:\hurtom.com\Seahorse - «Watch A Seahorse Give Birth» [EP] (2012) (FLAC)\01 Seahorse Magical Sun.flac
    Extracted successfully
    Conclusion: this track is CDDA with probability 100%
    Tempfile successfully deleted.

    2 -===- D:\hurtom.com\Seahorse - «Watch A Seahorse Give Birth» [EP] (2012) (FLAC)\02 Seahorse Mirrors Mors.flac
    Extracted successfully
    Conclusion: this track is CDDA with probability 100%
    Tempfile successfully deleted.

    3 -===- D:\hurtom.com\Seahorse - «Watch A Seahorse Give Birth» [EP] (2012) (FLAC)\03 Seahorse Kitsch Me.flac
    Extracted successfully
    Conclusion: this track is CDDA with probability 100%
    Tempfile successfully deleted.

    4 -===- D:\hurtom.com\Seahorse - «Watch A Seahorse Give Birth» [EP] (2012) (FLAC)\04 Seahorse Wish.flac
    Extracted successfully
    Conclusion: this track is CDDA with probability 100%
    Tempfile successfully deleted.

    5 -===- D:\hurtom.com\Seahorse - «Watch A Seahorse Give Birth» [EP] (2012) (FLAC)\05 Seahorse Forest.flac
    Extracted successfully
    Conclusion: this track is CDDA with probability 100%
    Tempfile successfully deleted.

    6 -===- D:\hurtom.com\Seahorse - «Watch A Seahorse Give Birth» [EP] (2012) (FLAC)\06 Seahorse I Feel.flac
    Extracted successfully
    Conclusion: this track is CDDA with probability 100%
    Tempfile successfully deleted.

    Finished at: среда, 23. 01. 2013. - 9:40.08 (operation time: 0:04.00)
    Log

    Exact Audio Copy V1.0 beta 3 from 29. August 2011

    Отчёт EAC об извлечении, выполненном 29. декабря 2012, 17:53

    Seahorse / Watch A Seahorse Give Birth [EP]

    Дисковод: ASUS DRW-2014S1T Adapter: 2 ID: 8

    Режим чтения : Достоверность
    Использование точного потока : Да
    Отключение кэша аудио : Да
    Использование указателей C2 : Нет

    Коррекция смещения при чтении : 6
    Способность читать области Lead-in и Lead-out : Нет
    Заполнение пропущенных сэмплов тишиной : Да
    Удаление блоков с тишиной в начале и конце : Нет
    При вычислениях CRC использовались нулевые сэмплы : Да
    Интерфейс : Встроенный Win32-интерфейс для Win NT/2000
    Обработка зазоров : Добавлено к предыдущему треку

    Выходной формат : Пользовательский кодировщик
    Выбранный битрейт : 128 kBit/s
    Качество : Высокий
    Добавление ID3-тега : Нет
    Утилита сжатия : C:\Program Files\Exact Audio Copy\Flac\flac.exe
    Дополнительные параметры : -V -8 -T "Genre=%genre%" -T "Artist=%artist%" -T "Title=%title%" -T "Album=%albumtitle%" -T "Date=%year%" -T "Tracknumber=%tracknr%" -T "Comment=%comment%" %source%

    TOC извлечённого CD

    Трек | Старт | Длительность | Начальный сектор | Конечный сектор
    ---------------------------------------------------------------------
    1 | 0:00.00 | 5:04.00 | 0 | 22799
    2 | 5:04.00 | 4:39.65 | 22800 | 43789
    3 | 9:43.65 | 4:25.37 | 43790 | 63701
    4 | 14:09.27 | 7:21.37 | 63702 | 96813
    5 | 21:30.64 | 4:33.46 | 96814 | 117334
    6 | 26:04.35 | 4:43.39 | 117335 | 138598

    Трек 1

    Имя файла D:\Documents and Settings\user\Рабочий стол\«»—0–\01 Seahorse Magical Sun.wav

    Длина предзазора 0:00:02.00

    Пиковый уровень 100.0 %
    Скорость извлечения 4.4 X
    Качество трека 99.9 %
    CRC теста BAE09CAE
    CRC копии BAE09CAE
    Копирование... OK

    Трек 2

    Имя файла D:\Documents and Settings\user\Рабочий стол\«»—0–\02 Seahorse Mirrors Mors.wav

    Пиковый уровень 99.8 %
    Скорость извлечения 4.8 X
    Качество трека 99.9 %
    CRC теста 0209A59E
    CRC копии 0209A59E
    Копирование... OK

    Трек 3

    Имя файла D:\Documents and Settings\user\Рабочий стол\«»—0–\03 Seahorse Kitsch Me.wav

    Пиковый уровень 99.9 %
    Скорость извлечения 5.9 X
    Качество трека 100.0 %
    CRC теста 0AAD5789
    CRC копии 0AAD5789
    Копирование... OK

    Трек 4

    Имя файла D:\Documents and Settings\user\Рабочий стол\«»—0–\04 Seahorse Wish.wav

    Пиковый уровень 100.0 %
    Скорость извлечения 6.7 X
    Качество трека 100.0 %
    CRC теста 5BB5B681
    CRC копии 5BB5B681
    Копирование... OK

    Трек 5

    Имя файла D:\Documents and Settings\user\Рабочий стол\«»—0–\05 Seahorse Forest.wav

    Пиковый уровень 100.0 %
    Скорость извлечения 6.9 X
    Качество трека 100.0 %
    CRC теста D4EF64B3
    CRC копии D4EF64B3
    Копирование... OK

    Трек 6

    Имя файла D:\Documents and Settings\user\Рабочий стол\«»—0–\06 Seahorse I Feel.wav

    Пиковый уровень 98.1 %
    Скорость извлечения 6.6 X
    Качество трека 99.9 %
    CRC теста B4F7AD8A
    CRC копии B4F7AD8A
    Копирование... OK

    Ошибок не произошло

    Конец отчёта

    ==== Контрольная сумма отчёта 185B6FADB156BEB92998E0CAE66EC2ACC996BF4446D97044126F9CA1E5D38EF9 ====

Тривалість: 00:30:45
Мова: англійська
Аудіо-кодек: FLAC
Бітрейт: 916 кб/с
Джерело: ріп із власного CD


Срібний реліз (на рейтинг впливає 50% завантаженого)
 Трекер:    Зареєстрований   

Завантажити / скачати українську музику



відео для новачків



 Зареєстрований:   2013-01-23 09:42
 Розмір:   202 MB 
 Оцінка музики:   7.5/10 (Голосів: 4)
   
Волтер Вайтенко 
Новенький


З нами з: 16.03.15
Востаннє: 26.11.16
Повідомлень: 16

2015-04-11 14:28  
дякую авторові роздачі,
дуже цікавий гурт,але не зрозуміло чи він розвалився,чи знову зібрався і чи буде новий матеріал?

Ваш часовий пояс: GMT + 2 Години

Нова тема   Відповісти