Завантажити та скачати торренти українською


Хорова Капела "Почайна" - "Реквієм". Луїджі Керубіні (2002) [FLAC] | Chorus

Нові коментарі

Нова тема   Відповісти
Останній раз роздавалося 1973zack (2016-12-10)
Автор Повідомлення
gosha.samovar 
VIP


З нами з: 08.09.10
Востаннє: 09.12.16
Повідомлень: 400

2013-01-22 20:34  
Хорова Капела "Почайна" - "Реквієм". Луїджі Керубіні (2002) [FLAC] | Chorus

Хорова Капела "Почайна" - "Реквієм". Луїджі Керубіні (2002) [FLAC] | Chorus


Стиль: Classic
Країна, місто: Україна, Київ
Видавець: Хорова Капела "Почайна" за підтримки Києво-Могилянської Бізнес-Школи
Виконавці
Пісні:
    Луїджі Керубіні. "Реквієм"

      01. Introitus
      02. Graduale
      03. Dies Irae
      04. Offertorium
      05. Sanctus
      06. Pie Jesu
      07. Agnus Dei


    Віктор Степурко. Богородичні догмати поч. XVII ст.

      08. Догмат першого гласу
      09. Догмат другого гласу
      10. Догмат третього гласу

EAC log
Exact Audio Copy V1.0 beta 3 from 29. August 2011

Отчёт EAC об извлечении, выполненном 12. января 2013, 15:49

Хорова Капела "Почайна" / "Реквієм" Луїджі Керубіні

Дисковод: PHILIPS SPD2519T Adapter: 2 ID: 0

Режим чтения : Достоверность
Использование точного потока : Да
Отключение кэша аудио : Да
Использование указателей C2 : Нет

Коррекция смещения при чтении : 6
Способность читать области Lead-in и Lead-out : Нет
Заполнение пропущенных сэмплов тишиной : Да
Удаление блоков с тишиной в начале и конце : Нет
При вычислениях CRC использовались нулевые сэмплы : Да
Интерфейс : Встроенный Win32-интерфейс для Win NT/2000

Выходной формат : Пользовательский кодировщик
Выбранный битрейт : 1024 kBit/s
Качество : Высокий
Добавление ID3-тега : Нет
Утилита сжатия : D:\soft_2\EAC\Exact Audio Copy\Flac\flac.exe
Дополнительные параметры : -V -8 -T "Date=%year%" -T "Genre=%genre%" %source%

TOC извлечённого CD

Трек | Старт | Длительность | Начальный сектор | Конечный сектор
---------------------------------------------------------------------
1 | 0:00.00 | 6:42.63 | 0 | 30212
2 | 6:42.63 | 1:43.09 | 30213 | 37946
3 | 8:25.72 | 10:55.03 | 37947 | 87074
4 | 19:21.00 | 17:42.15 | 87075 | 166739
5 | 37:03.15 | 1:37.31 | 166740 | 174045
6 | 38:40.46 | 3:29.07 | 174046 | 189727
7 | 42:09.53 | 7:36.25 | 189728 | 223952
8 | 49:46.03 | 6:15.62 | 223953 | 252139
9 | 56:01.65 | 2:14.62 | 252140 | 262251
10 | 58:16.52 | 3:36.57 | 262252 | 278508

Характеристики диапазона извлечения и сообщения об ошибках

Выбранный диапазон

Имя файла N:\Роздачі\Хорова Капела Почайна. Реквієм Луїджі Керубіні\Хорова Капела ''Почайна'' - ''Реквієм'' Луїджі Керубіні.wav

Пиковый уровень 100.0 %
Скорость извлечения 8.1 X
Качество диапазона 100.0 %
CRC теста 0B538A54
CRC копии 0B538A54
Копирование... OK

Ошибок не произошло

Конец отчёта

==== Контрольная сумма отчёта 5B9537837071AE281F6F160BDEB9E95321C577AFA099B52ADE7A5C2F58FE51EF ====
AUDIOCHECKER
AUDIOCHECKER v2.0 beta (build 457) - by Dester - [email protected]
~~~~~~~~~~~~~~~~~~~~~~~~~~~~~~~~~~

Начато: вівторок, 22. 01. 2013. - 21:29.23
Найдено файлов: 10

01 -===- трек 1 в приводе HL-DT-STDVD-RAM GSA-H58N
Трек успешно извлечён
Заключение: этот трек - CDDA с вероятностью 100%
Временный файл удалён.

02 -===- трек 2 в приводе HL-DT-STDVD-RAM GSA-H58N
Трек успешно извлечён
Заключение: этот трек - CDDA с вероятностью 85%
Временный файл удалён.

03 -===- трек 3 в приводе HL-DT-STDVD-RAM GSA-H58N
Трек успешно извлечён
Заключение: этот трек - CDDA с вероятностью 100%
Временный файл удалён.

04 -===- трек 4 в приводе HL-DT-STDVD-RAM GSA-H58N
Трек успешно извлечён
Заключение: этот трек - CDDA с вероятностью 100%
Временный файл удалён.

05 -===- трек 5 в приводе HL-DT-STDVD-RAM GSA-H58N
Трек успешно извлечён
Заключение: этот трек - CDDA с вероятностью 85%
Временный файл удалён.

06 -===- трек 6 в приводе HL-DT-STDVD-RAM GSA-H58N
Трек успешно извлечён
Заключение: этот трек - CDDA с вероятностью 100%
Временный файл удалён.

07 -===- трек 7 в приводе HL-DT-STDVD-RAM GSA-H58N
Трек успешно извлечён
Заключение: этот трек - CDDA с вероятностью 100%
Временный файл удалён.

08 -===- трек 8 в приводе HL-DT-STDVD-RAM GSA-H58N
Трек успешно извлечён
Заключение: этот трек - CDDA с вероятностью 86%
Временный файл удалён.

09 -===- трек 9 в приводе HL-DT-STDVD-RAM GSA-H58N
Трек успешно извлечён
Заключение: этот трек - CDDA с вероятностью 99%
Временный файл удалён.

10 -===- трек 10 в приводе HL-DT-STDVD-RAM GSA-H58N
Трек успешно извлечён
Заключение: этот трек - CDDA с вероятностью 58%
Временный файл удалён.

Завершено: вівторок, 22. 01. 2013. - 21:49.43 (Время операции: 0:20.19)
Спектр
Тривалість: 01:01:53
Мова: латинська (01-07), старослов'янська (08-10)
Аудіо-кодек: FLAC
Бітрейт: 688 кб/с
Джерело: Власний ріп власного диска


Срібний реліз (на рейтинг впливає 50% завантаженого)
 Трекер:    Зареєстрований   

Завантажити / скачати українську музику



відео для новачків



 Зареєстрований:   2013-01-22 20:54
 Розмір:   341 MB 
 Оцінка музики:   10/10 (Голосів: 4)
   
Ваш часовий пояс: GMT + 2 Години

Нова тема   Відповісти