Завантажити та скачати торренти українською


Червоні вогні / Red Lights (2012) 720p Ukr/Eng | sub Ukr/Eng

Нові коментарі

Нова тема   Відповісти
Автор Повідомлення
DеLight 
Відео Гуртом - фільмокрай
Відео Гуртом - фільмокрай


З нами з: 24.08.11
Востаннє: 17.11.16
Повідомлень: 664

2013-01-21 09:16  
Червоні вогні / Red Lights (2012) 720p Ukr/Eng | sub Ukr/Eng

Червоні вогні / Red Lights (2012) 720p Ukr/Eng | sub Ukr/Eng

«Чи готовий ти повірити в це?»


Український постер




Жанр: драма, детектив, трилер
Країна: Іспанія, США



рейтинг MPAA: - дітям до 17 років обов'язкова присутність батьків або дорослого опікуна


Кіностудія / кінокомпанія: Nostromo Pictures, Cindy Cowan Entertainment, Antena 3 Films
Режисер: Родріґо Кортес / Rodrigo Cortes
Актори: Кілліан Мерфі / Cillian Murphy, Сіґурні Вівер / Sigourney Weaver, Роберт Де Ніро / Robert De Niro, Тобі Джонс / Toby Jones, Джоелі Річардсон / Joely Richardson, Елізабет Олсен / Elizabeth Olsen, Керйґ Робертс / Craig Roberts, Леонардо Сбараґліа / Leonardo Sbaraglia, Адріане Ленокс / Adriane Lenox, Ґаррік Гаґон / Garrick Hagon, Бурн Ґорман / Burn Gorman, Мітчелл Муллен / Mitchell Mullen, Натан Осґуд / Nathan Osgood, Маделейн Поттер / Madeleine Potter, Елоіз Bебб / Eloise Webb

Сюжет:
Маргарет Метісон та її асистент Том Баклі досліджують паранормальні явища, спростовують їх, розкривають методи фальсифікації вищих сил у відомих ясновидців. Але чи по зубах їм Саймон Сілвер? Чи має він якісь надзвичайні здібності? Чи існують у природі вищі сили, непідвладні науці?


Тривалість: 01:53:51
Якість: 720p [ріп від HDChina]

Відео:
кодек:
розмір кадру: 1280 x 544
бітрейт: 4 857 кб/с

Аудіо #1:
мова: українська
переклад: професійний дубльований
кодек: 2.0
бітрейт: 192 кб/с

Фільм перекладено і дубльовано на студії Tretyakoff production на замовлення Aurora Distribution

Аудіо #2:
мова: англійська
переклад: оригінал
кодек: 5.1
бітрейт: 448 кб/с

Субтитри #1-3:
мова: українська, англійська
тип: програмні (м'які)
формат: *.srt


Українські трейлери




MediaInfo

Код:
General
Unique ID                      : 175113617551327909179353574701076758152 (0x83BDA7EDBAA409BFA2EE0915034ABE88)
Complete name                  : D:\Torrents\Red Lights (2012) 720p [Ukr, Eng] [Hurtom].mkv
Format                         : Matroska
Format version                 : Version 4 / Version 2
File size                      : 4.37 GiB
Duration                       : 1h 53mn
Overall bit rate               : 5 498 Kbps
Movie name                     : Red Lights (2012) 720p [Ukr, Eng] [Hurtom] by Delight
Encoded date                   : UTC 2010-02-22 21:41:31
Writing application            : mkvmerge v5.9.0 ('On The Loose') built on Dec  9 2012 15:37:01
Writing library                : libebml v1.3.0 + libmatroska v1.4.0

Video
ID                             : 1
Format                         : AVC
Format/Info                    : Advanced Video Codec
Format profile                 : [email protected]
Format settings, CABAC         : Yes
Format settings, ReFrames      : 12 frames
Codec ID                       : V_MPEG4/ISO/AVC
Duration                       : 1h 53mn
Bit rate                       : 4 857 Kbps
Width                          : 1 280 pixels
Height                         : 544 pixels
Display aspect ratio           : 2.35:1
Frame rate mode                : Constant
Frame rate                     : 23.976 fps
Color space                    : YUV
Chroma subsampling             : 4:2:0
Bit depth                      : 8 bits
Scan type                      : Progressive
Bits/(Pixel*Frame)             : 0.291
Stream size                    : 3.78 GiB (86%)
Title                          : Red Lights (2012) 720p [HDChina]
Writing library                : core 125 r2208 d9d2288
Encoding settings              : cabac=1 / ref=12 / deblock=1:-3:-3 / analyse=0x3:0x113 / me=umh / subme=10 / psy=1 / psy_rd=1.10:0.00 / mixed_ref=1 / me_range=48 / chroma_me=1 / trellis=2 / 8x8dct=1 / cqm=0 / deadzone=21,11 / fast_pskip=0 / chroma_qp_offset=-4 / threads=9 / lookahead_threads=1 / sliced_threads=0 / nr=0 / decimate=0 / interlaced=0 / bluray_compat=0 / constrained_intra=0 / bframes=6 / b_pyramid=2 / b_adapt=2 / b_bias=0 / direct=3 / weightb=1 / open_gop=0 / weightp=2 / keyint=250 / keyint_min=23 / scenecut=40 / intra_refresh=0 / rc_lookahead=40 / rc=2pass / mbtree=0 / bitrate=4857 / ratetol=1.0 / qcomp=0.60 / qpmin=0 / qpmax=69 / qpstep=4 / cplxblur=20.0 / qblur=0.5 / vbv_maxrate=40000 / vbv_bufsize=40000 / nal_hrd=none / ip_ratio=1.40 / pb_ratio=1.30 / aq=1:0.80
Language                       : English
Default                        : Yes
Forced                         : No

Audio #1
ID                             : 2
Format                         : AC-3
Format/Info                    : Audio Coding 3
Mode extension                 : CM (complete main)
Format settings, Endianness    : Big
Codec ID                       : A_AC3
Duration                       : 1h 53mn
Bit rate mode                  : Constant
Bit rate                       : 192 Kbps
Channel(s)                     : 2 channels
Channel positions              : Front: L R
Sampling rate                  : 48.0 KHz
Bit depth                      : 16 bits
Compression mode               : Lossy
Stream size                    : 156 MiB (3%)
Title                          : 2.0; 192 kbps; професійний дубльований {Tretyakoff production}
Language                       : Ukrainian
Default                        : Yes
Forced                         : No

Audio #2
ID                             : 3
Format                         : AC-3
Format/Info                    : Audio Coding 3
Mode extension                 : CM (complete main)
Format settings, Endianness    : Big
Codec ID                       : A_AC3
Duration                       : 1h 53mn
Bit rate mode                  : Constant
Bit rate                       : 448 Kbps
Channel(s)                     : 6 channels
Channel positions              : Front: L C R, Side: L R, LFE
Sampling rate                  : 48.0 KHz
Bit depth                      : 16 bits
Compression mode               : Lossy
Stream size                    : 365 MiB (8%)
Title                          : 5.1; 448 kbps; original
Language                       : English
Default                        : No
Forced                         : No

Text #1
ID                             : 4
Format                         : UTF-8
Codec ID                       : S_TEXT/UTF8
Codec ID/Info                  : UTF-8 Plain Text
Title                          : full
Language                       : Ukrainian
Default                        : No
Forced                         : No

Text #2
ID                             : 5
Format                         : UTF-8
Codec ID                       : S_TEXT/UTF8
Codec ID/Info                  : UTF-8 Plain Text
Title                          : full
Language                       : English
Default                        : No
Forced                         : No

Text #3
ID                             : 6
Format                         : UTF-8
Codec ID                       : S_TEXT/UTF8
Codec ID/Info                  : UTF-8 Plain Text
Title                          : SDH
Language                       : English
Default                        : No
Forced                         : No

Світлини










Джерело:
За надану доріжку та оформлення релізу подяка karvai0, Vasua95 і The_Marlboro за українські відредаговані субтитри.
Особиста оцінка: 7 - початок доволі цікавий і інтригуючий, друга половина фільму не так сподобалася.


 Трекер:    Зареєстрований   

Завантажити / скачати фільм українською



відео для новачків



 Зареєстрований:   2013-01-21 09:16
 Розмір:   4.37 GB 
 Оцінка фільму:   9.2/10 (Голосів: 25)
   
Інші релізи
   Червоні вогні / Red Lights (2012) 1080p Ukr/Eng | Sub Ukr/Eng kvvdvd  4 / 0   7.82 GB   2016-11-01 19:41 
   Червоні вогні / Red Lights (2012) Ukr/Eng | Sub Ukr/Eng karvai0  9 / 1   2.18 GB   2013-12-26 15:48 
hetzendorf 
Свій


З нами з: 23.07.15
Востаннє: 07.12.16
Повідомлень: 148

2016-07-31 23:54  
Фільм був би просто чудовим, якби не дурна кінцівка, яка перекреслила всю ідею та її чудове розкриття. Тому 5/10 (не партія Wide grin ).

Тим не менше рекомендую всім для ознайомлення справжньої сутності й матеріальної частини закулісного боку «паранормальних явищ», «екстрасенсів», «цілителів», «проповідників», релігійних «чудес» та іншого шахрайства.

Ваш часовий пояс: GMT + 2 Години

Нова тема   Відповісти