Завантажити та скачати торренти українською


Океан Ельзи - Gloria (2005) AVC | Pop-Rock

Нові коментарі

Нова тема   Відповісти
Останній раз роздавалося YaWrangler (2015-03-09)
Автор Повідомлення
sergiyko 
Забанено
Забанено


З нами з: 17.06.08
Востаннє: 13.10.13
Повідомлень: 259

2013-01-20 20:43  
Океан Ельзи - Gloria (2005) AVC | Pop-Rock




Стиль: Pop Rock
Країна, місто: Україна, Київ, Палац "Спорту"
Сайти: Офіційний сайт
Виконавці:
Святослав Вакарчук (вокал),
Саша Береговський,
Денис Глінін (барабани),
Денис Дудко (бас гітара),
Мілош (клавішні),
Петро Чернявський (гітара)

Опис:
Відеоверсія фінального концерту всеукраїнського туру в підтримку альбому «GLORIA» в київському Палаці спорту 15 листопада 2005 року.
Список пісень

1.Нiколи
2.Коко Шанель
3.Вiддам
4.Gloria
5.Дiвчина (з iншого життя)
6.Ти собi сама
7.Сьогоднi
8.Не питай
9.Холодно
10.Майже весна
11.Вiдчуваю
12.Кiшка
13.Вище неба
14.Вставай
15.Без бою
16.911
17.Дякую тобi
18.Вiдпусти
Тривалість: 01:28:14
Якість:
Відео:
кодек:
розмір кадру: 704x536
бітрейт: 1791 кб/с

Аудіо:
мова: українська
кодек: MP3 2ch
бітрейт: 256 кб/с
MediaInfo

General
Unique ID : 255071713704194423692642496075394513592 (0xBFE5066F80E20C0F8E4CE00E5E28FAB8)
Complete name : E:\Torrent\VideoMusic\ОкеанЕльзи.Gloria.2005.ДВДРіп.mkv
Format : Matroska
Format version : Version 2
File size : 1.27 GiB
Duration : 1h 28mn
Overall bit rate : 2 048 Kbps
Encoded date : UTC 2013-01-20 18:23:55
Writing application : mkvmerge v5.6.0 ('Kenya Kane') built on Jun 29 2012 15:01:44
Writing library : libebml v1.2.3 + libmatroska v1.3.0

Video
ID : 1
Format : AVC
Format/Info : Advanced Video Codec
Format profile : [email protected]
Format settings, CABAC : Yes
Format settings, ReFrames : 5 frames
Muxing mode : Header stripping
Codec ID : V_MPEG4/ISO/AVC
Duration : 1h 28mn
Bit rate : 1 791 Kbps
Width : 704 pixels
Height : 536 pixels
Display aspect ratio : 4:3
Frame rate mode : Constant
Frame rate : 25.000 fps
Color space : YUV
Chroma subsampling : 4:2:0
Bit depth : 8 bits
Scan type : Progressive
Bits/(Pixel*Frame) : 0.190
Stream size : 1.08 GiB (86%)
Writing library : core 125 r2200 999b753
Encoding settings : cabac=1 / ref=5 / deblock=1:-1:-1 / analyse=0x3:0x113 / me=umh / subme=8 / psy=1 / psy_rd=1.00:0.15 / mixed_ref=1 / me_range=16 / chroma_me=1 / trellis=2 / 8x8dct=1 / cqm=0 / deadzone=21,11 / fast_pskip=1 / chroma_qp_offset=-3 / threads=6 / lookahead_threads=1 / sliced_threads=0 / nr=0 / decimate=1 / interlaced=0 / bluray_compat=0 / constrained_intra=0 / bframes=8 / b_pyramid=2 / b_adapt=2 / b_bias=0 / direct=3 / weightb=1 / open_gop=0 / weightp=2 / keyint=250 / keyint_min=25 / scenecut=40 / intra_refresh=0 / rc_lookahead=50 / rc=2pass / mbtree=1 / bitrate=1791 / ratetol=1.0 / qcomp=0.60 / qpmin=0 / qpmax=69 / qpstep=4 / cplxblur=20.0 / qblur=0.5 / ip_ratio=1.40 / aq=1:1.00
Default : Yes
Forced : No

Audio
ID : 2
Format : MPEG Audio
Format version : Version 1
Format profile : Layer 3
Mode : Joint stereo
Muxing mode : Header stripping
Codec ID : A_MPEG/L3
Codec ID/Hint : MP3
Duration : 1h 28mn
Bit rate mode : Constant
Bit rate : 256 Kbps
Channel(s) : 2 channels
Sampling rate : 48.0 KHz
Compression mode : Lossy
Stream size : 162 MiB (12%)
Title : Ukrainian
Language : Ukrainian
Default : Yes
Forced : No
Скріншоти
Джерело: власний ріп з цього ДВД https://toloka.to/t43151
Особиста оцінка: 10 - без зайвих вагань рекомендую всім!


Золотий реліз (завантажене не впливає на рейтинг)
 Трекер:    Зареєстрований   

Завантажити / скачати кліп українською



відео для новачків



 Зареєстрований:   2013-01-20 22:27
 Розмір:   1.27 GB 
 Оцінка кліпу:   10/10 (Голосів: 4)
 В відео додано глави
   
deepfree 
VIP


З нами з: 11.02.09
Востаннє: 11.12.16
Повідомлень: 264

2013-01-20 21:42  
Шкода що ви не зробили глава (перехід на наступну пісню) такі як на DVD.
sergiyko 
Забанено
Забанено


З нами з: 17.06.08
Востаннє: 13.10.13
Повідомлень: 259

2013-01-20 22:31  
Перезалив торент, у відеофайл додав глави (chapter) як на ДВД для переходу на початок пісні.
Ваш часовий пояс: GMT + 2 Години

Нова тема   Відповісти