Завантажити та скачати торренти українською


Майкл Коллінз / Michael Collins (1996) 720p Ukr/Eng | Sub Eng

Нові коментарі

Нова тема   Відповісти
Автор Повідомлення
Romario_O 
Jedi
Jedi


З нами з: 21.11.08
Востаннє: 08.12.16
Повідомлень: 1941

2013-01-19 13:35  
Майкл Коллінз / Michael Collins (1996) 720p Ukr/Eng | Sub Eng

Майкл Коллінз / Michael Collins (1996) 720p Ukr/Eng | Sub Eng




Жанр: трилер, драма, військовий, біографія
Країна: Великобританія, Ірландія, США
Кіностудія / кінокомпанія: Warner Bros. Pictures, Geffen Pictures
Режисер: Ніл Джордан
Актори: Ліам Нісон, Ейдан Куїнн, Стівен Рі, Алан Рікман, Джулія Робертс, Ієн Харт, Річард Інгрем, Джон Кенні, Джер О'Лірі та інші.

Сюжет:
Фільм про людину, чия хоробрість і відданість своєму народові змінили історію його країни - Ірландії - і зробили його ім'я легендою.


Тривалість: 02:12:23
Якість: 720p
Відео:
кодек:
розмір кадру: 1280x720
бітрейт: 4337 кб/с

Аудіо 1:
мова: українська
переклад: багатоголосий закадровий
кодек: 5.1
бітрейт: 384 кб/с

Аудіо 2:
мова: українська
переклад: багатоголосий закадровий
кодек: 2.0
бітрейт: 192 кб/с

Аудіо 3:
мова: англійська
переклад: оригінал
кодек: 5.1
бітрейт: 384 кб/с

Джерело озвучення:
ТО "Цікава Ідея" в рамках підтримки "Акція до Дня пам’яті героїв Крут (2013)"

Субтитри # 1:
мова: англійська
тип: програмні (м'які)
формат: *.srt

Скріншоти:
Скріншоти






MediaInfo

General
Unique ID : 199950580812011738477655049870086474551 (0x966D14C2DC7D8815ADA7A8385A3F8B37)
Complete name : F:\Temp\Michael Collins (1996) [Ukr,Eng] 720p [Hurtom] (1).mkv
Format : Matroska
File size : 4.90 GiB
Duration : 2h 12mn
Overall bit rate : 5 299 Kbps
Encoded date : UTC 2013-01-19 17:41:30
Writing application : mkvmerge v5.9.0 ('On The Loose') built on Dec 31 2012 17:36:59
Writing library : libebml v1.3.0 + libmatroska v1.4.0

Video
ID : 1
Format : AVC
Format/Info : Advanced Video Codec
Format profile : [email protected]
Format settings, CABAC : Yes
Format settings, ReFrames : 9 frames
Codec ID : V_MPEG4/ISO/AVC
Duration : 2h 12mn
Bit rate : 4 337 Kbps
Width : 1 280 pixels
Height : 720 pixels
Display aspect ratio : 16:9
Frame rate : 23.976 fps
Color space : YUV
Chroma subsampling : 4:2:0
Bit depth : 8 bits
Scan type : Progressive
Bits/(Pixel*Frame) : 0.196
Stream size : 3.91 GiB (80%)
Title : Michael.Collins.1996.720p.HDTV.DD5.1.
Writing library : core 76 r1271M 496d79d
Encoding settings : cabac=1 / ref=9 / deblock=1:-1:-2 / analyse=0x3:0x113 / me=umh / subme=9 / psy=1 / psy_rd=1.3:0.1 / mixed_ref=1 / me_range=24 / chroma_me=1 / trellis=2 / 8x8dct=1 / cqm=0 / deadzone=21,11 / chroma_qp_offset=-3 / threads=3 / nr=0 / decimate=1 / mbaff=0 / bframes=4 / b_pyramid=1 / b_adapt=2 / b_bias=0 / direct=3 / wpredb=1 / keyint=250 / keyint_min=25 / scenecut=40 / rc_lookahead=0 / rc=2pass / mbtree=0 / bitrate=4337 / ratetol=1.0 / qcomp=0.60 / qpmin=10 / qpmax=51 / qpstep=4 / cplxblur=20.0 / qblur=0.5 / vbv_maxrate=50000 / vbv_bufsize=50000 / ip_ratio=1.40 / pb_ratio=1.30 / aq=1:0.60
Language : English

Audio #1
ID : 2
Format : AC-3
Format/Info : Audio Coding 3
Mode extension : CM (complete main)
Codec ID : A_AC3
Duration : 2h 12mn
Bit rate mode : Constant
Bit rate : 384 Kbps
Channel(s) : 6 channels
Channel positions : Front: L C R, Side: L R, LFE
Sampling rate : 48.0 KHz
Bit depth : 16 bits
Compression mode : Lossy
Stream size : 364 MiB (7%)
Title : ТО "Цікава Ідея" ( 5.1)
Language : Ukrainian

Audio #2
ID : 3
Format : AC-3
Format/Info : Audio Coding 3
Mode extension : CM (complete main)
Codec ID : A_AC3
Duration : 2h 12mn
Bit rate mode : Constant
Bit rate : 192 Kbps
Channel(s) : 2 channels
Channel positions : Front: L R
Sampling rate : 48.0 KHz
Bit depth : 16 bits
Compression mode : Lossy
Stream size : 182 MiB (4%)
Title : ТО "Цікава Ідея" ( 2.0)
Language : Ukrainian

Audio #3
ID : 4
Format : AC-3
Format/Info : Audio Coding 3
Mode extension : CM (complete main)
Codec ID : A_AC3
Duration : 2h 12mn
Bit rate mode : Constant
Bit rate : 384 Kbps
Channel(s) : 6 channels
Channel positions : Front: L C R, Side: L R, LFE
Sampling rate : 48.0 KHz
Bit depth : 16 bits
Compression mode : Lossy
Stream size : 364 MiB (7%)
Title : English
Language : English

Text
ID : 5
Format : UTF-8
Codec ID : S_TEXT/UTF8
Codec ID/Info : UTF-8 Plain Text
Title : English
Language : English
За укр. постер подяка пану - somnambula

Джерело:
Особиста оцінка: 0 - не дивився


Золотий реліз (завантажене не впливає на рейтинг)
 Трекер:    Зареєстрований   

Завантажити / скачати фільм українською



відео для новачків



 Зареєстрований:   2013-01-19 19:58
 Розмір:   4.9 GB 
 Оцінка фільму:   9.6/10 (Голосів: 27)
   
Інші релізи
   Майкл Коллінз / Michael Collins (1996) Ukr/Eng | Sub Eng Romario_O  7 / 4   2.54 GB   2013-01-19 13:51 
   Майкл Коллінз / Michael Collins (1996) Leben  2 / 0   911 MB   2013-01-19 07:41 
bot 
робот


З нами з: 30.09.07
Востаннє: 26.05.05
Повідомлень: 16031

2013-01-19 13:52  
Тему перенесено з Пісочниця до форуму Фільми в HD


Romario_O

Romario_O 
Jedi
Jedi


З нами з: 21.11.08
Востаннє: 08.12.16
Повідомлень: 1941

2013-01-19 13:57  
DеLight 
Відео Гуртом - фільмокрай
Відео Гуртом - фільмокрай


З нами з: 24.08.11
Востаннє: 17.11.16
Повідомлень: 664

2013-01-19 14:05  
Додайте MediaInfo.
DеLight 
Відео Гуртом - фільмокрай
Відео Гуртом - фільмокрай


З нами з: 24.08.11
Востаннє: 17.11.16
Повідомлень: 664

2013-01-19 17:25  
Romario_O написано:
Muxing mode : Header stripping

За правилами HD компресія заголовків повинна бути вимкнена http://toloka.to/t31095
Доведеться перезібрати і оновити.

ratbol 
Модератор HD


З нами з: 03.02.09
Востаннє: 07.12.16
Повідомлень: 1088

2013-01-19 19:13  
Romario_O
Треба перезібрати.

Romario_O 
Jedi
Jedi


З нами з: 21.11.08
Востаннє: 08.12.16
Повідомлень: 1941

2013-01-19 19:59  
перезібрав та перезалив торрент
rkononenko 
Відео Гуртом - субтитрування
Відео Гуртом - субтитрування


З нами з: 24.02.09
Востаннє: 08.12.16
Повідомлень: 1140

2013-01-20 23:12  
Додайте доріжку від Три Крапки
waldi-hurtom 
VIP


З нами з: 07.10.12
Востаннє: 08.12.16
Повідомлень: 612

2013-04-18 08:40  
Чудовий фільм! 9 балів. Чимось нагадав мені Нескореного. Тільки в художньо-світоглядному сенсі цей вищий. Дуже дякую!
Ваш часовий пояс: GMT + 2 Години

Нова тема   Відповісти