Завантажити та скачати торренти українською


Океан Ельзи - Тихий океан (2004) AVC | Pop-Rock

Нові коментарі

Нова тема   Відповісти
Автор Повідомлення
sergiyko 
Забанено
Забанено


З нами з: 17.06.08
Востаннє: 13.10.13
Повідомлень: 259

2013-01-19 11:35  
Океан Ельзи - Тихий океан (2004) AVC | Pop-Rock




Стиль: Pop Rock
Країна, місто: Україна, Київ, Палац "Україна"
Сайти: Офіційний сайт
Виконавці: Святослав Вакарчук та ін.

Опис
До акустичної программи "Тихий Океан" увійшли кращі композиції з усіх чотирьох студійних альбомів "Океану Ельзи" в кардинально новому, акустичному аранжуванні. На сцені група "Океан Ельзи" буде грати у супроводі струного квартету (дві скрипки, альт, віолончель), перкусіоніста та жіночої вокальної групи.

Акустичне аранжування полягає не тільки в тому, що всі пісні будуть виконуватись на акустичних інструментах. Деякі загальновідомі композиції "Океану Ельзи" настільки змінено, що навіть фани групи не одразу їх впізнають. Наприклад, "Isn't It Сон" буде виконано в стилі реггі, а "Янанебібув" буде зіграно в ритмі босанови. Крім пісень, які відомі з офіційних альбомів, слухачів також очікує декілька сюрпризів. Вперше на концертах буде виконуватись відома з реклами композиція "Я їду додому". В програму туру включено також пісню С.Вакарчука "Він чекає на неї", яку раніше виконував А.Пономарьов, та композицію "Ото була весна", яка до цього часу виходила тільки на збірках..."
_______________________________________

„Якщо повернутись до історії, ви побачите, що назва самого Тихого Океану з’явилася помилково. Коли європейські мореплавці вперше сюди попали, він абсолютно випадково виявився тихим і спокійним. А насправді, це найбільш бурхливий і потужний океан в світі. Ми хотіли провести своєрідну аналогію. Продемонструвати, що Океан Ельзи, яка є дуже потужною рок-групою і яка дуже любить великі рок-н-ролльні концерти, вирішила на деякий час стати тихим океаном, заграти акустичну програму, під час якої не буде ховатися за потужним звуком. Це буде такий неприхований Океан Ельзи”.
(С.Вакарчук про акустичну прграму "Тихий Океан")
Список пісень
Мене
Дівчина
Він чекає не неї
Віддам
Холодно
Іду на дно
Там, де нас нема
Я на небі був
Для тебе
Кішка
Квітка
Isn't it сон
Позич мені Сонце
Весна
Я їду додому
Susy (Сюзі)
Друг
911
Відпусти
Sunny
Тривалість: 01:36:28
Якість:
Відео:
кодек:
розмір кадру: 720 х 552
бітрейт: 1801 кб/с

Аудіо:
мова: українська
кодек: 2.0
бітрейт: 256 кб/с
MediaInfo
General
Unique ID : 246952745173633209398798239375756438146 (0xB9C95E61ABF9AAB8AE53FA54C4C92A82)
Complete name : E:\Torrent\VideoMusic\ОкеанЕльзи.Тихий Океан.2004.ДВДРіп.mkv
Format : Matroska
Format version : Version 2
File size : 1.39 GiB
Duration : 1h 36mn
Overall bit rate : 2 058 Kbps
Encoded date : UTC 2013-01-19 08:34:42
Writing application : mkvmerge v5.6.0 ('Kenya Kane') built on Jun 29 2012 15:01:44
Writing library : libebml v1.2.3 + libmatroska v1.3.0

Video
ID : 1
Format : AVC
Format/Info : Advanced Video Codec
Format profile : [email protected]
Format settings, CABAC : Yes
Format settings, ReFrames : 5 frames
Codec ID : V_MPEG4/ISO/AVC
Duration : 1h 36mn
Bit rate : 1 800 Kbps
Width : 720 pixels
Height : 552 pixels
Display aspect ratio : 4:3
Frame rate mode : Constant
Frame rate : 25.000 fps
Color space : YUV
Chroma subsampling : 4:2:0
Bit depth : 8 bits
Scan type : Progressive
Bits/(Pixel*Frame) : 0.181
Stream size : 1.19 GiB (86%)
Writing library : core 125 r2200 999b753
Encoding settings : cabac=1 / ref=5 / deblock=1:-1:-1 / analyse=0x3:0x113 / me=umh / subme=8 / psy=1 / psy_rd=1.00:0.10 / mixed_ref=1 / me_range=16 / chroma_me=1 / trellis=1 / 8x8dct=1 / cqm=0 / deadzone=21,11 / fast_pskip=1 / chroma_qp_offset=-3 / threads=6 / lookahead_threads=1 / sliced_threads=0 / nr=0 / decimate=1 / interlaced=0 / bluray_compat=0 / constrained_intra=0 / bframes=5 / b_pyramid=2 / b_adapt=2 / b_bias=0 / direct=3 / weightb=1 / open_gop=0 / weightp=2 / keyint=250 / keyint_min=25 / scenecut=40 / intra_refresh=0 / rc_lookahead=50 / rc=2pass / mbtree=1 / bitrate=1800 / ratetol=1.0 / qcomp=0.60 / qpmin=0 / qpmax=69 / qpstep=4 / cplxblur=20.0 / qblur=0.5 / ip_ratio=1.40 / aq=1:1.00
Default : Yes
Forced : No

Audio
ID : 2
Format : AC-3
Format/Info : Audio Coding 3
Mode extension : CM (complete main)
Format settings, Endianness : Big
Codec ID : A_AC3
Duration : 1h 36mn
Bit rate mode : Constant
Bit rate : 256 Kbps
Channel(s) : 2 channels
Channel positions : Front: L R
Sampling rate : 48.0 KHz
Bit depth : 16 bits
Compression mode : Lossy
Stream size : 177 MiB (12%)
Default : Yes
Forced : No
Скріншоти
Джерело: Власний ріп з ДВД https://toloka.to/t43084
Особиста оцінка: 10 - без зайвих вагань рекомендую всім!


Золотий реліз (завантажене не впливає на рейтинг)
 Трекер:    Зареєстрований   

Завантажити / скачати кліп українською



відео для новачків



 Зареєстрований:   2013-01-19 11:35
 Розмір:   1.39 GB 
 Оцінка кліпу:   9.2/10 (Голосів: 11)
   
Ваш часовий пояс: GMT + 2 Години

Нова тема   Відповісти