Завантажити та скачати торренти українською


VA - Чайка. Міжнародний молодіжний фестиваль (2001) [FLAC] | Pop

Нові коментарі

Нова тема   Відповісти
Останній раз роздавалося Myfordownloads (2016-10-09)
Автор Повідомлення
Khtos 
Свій


З нами з: 24.06.09
Востаннє: 02.12.16
Повідомлень: 107

2013-01-19 01:41  
VA - Чайка. Міжнародний молодіжний фестиваль (2001) [FLAC] | Pop

VA - Чайка. Міжнародний молодіжний фестиваль (2001) [FLAC] | Pop


Стиль: Pop
Країна: Україна
Видавець: JRC
Пісні:
    1. Грин грей - Большие облака
    2. Катя Chilly - Івашечку
    3. UGO - Такая как ты
    4. D.A.Z Machine - Mr. Почтальон
    5. B&B feat. West Side Dog - Тыбыдала
    6. Unity & Гайтана - Диско
    7. Дельфин - Любовь
    8. Белки - Декорации
    9. Димна Суміш - Молоток
    10. Чичерина - Кукла
    11. Танок на майдані Конго - Ретро
    12. Tanki - Возьми меня силой
    13. Воплі Відоплясова - Кароліна

Тривалість: 00:49:26
Мова: українська (2,9,11,13), російська (1,3-8,10,12)
Аудіо-кодек: Flac
Бітрейт: 973 кб/с
Джерело: власний ріп
Додаткова інформація:
"Log"

Exact Audio Copy V1.0 beta 3 from 29. August 2011

EAC extraction logfile from 19. January 2013, 0:31

Various Artists / Чайка. Міжнародний молодіжний фестиваль

Used drive : hp DVD A DS8A5LH Adapter: 0 ID: 1

Read mode : Secure
Utilize accurate stream : Yes
Defeat audio cache : Yes
Make use of C2 pointers : No

Read offset correction : 6
Overread into Lead-In and Lead-Out : No
Fill up missing offset samples with silence : Yes
Delete leading and trailing silent blocks : No
Null samples used in CRC calculations : Yes
Used interface : Native Win32 interface for Win NT & 2000

Used output format : User Defined Encoder
Selected bitrate : 1024 kBit/s
Quality : High
Add ID3 tag : No
Command line compressor : C:\Program Files (x86)\Exact Audio Copy\Flac\flac.exe
Additional command line options : -V -8 -T "Date=%year%" -T "Genre=%genre%" %source%

TOC of the extracted CD

Track | Start | Length | Start sector | End sector
---------------------------------------------------------
1 | 0:00.00 | 2:54.52 | 0 | 13101
2 | 2:54.52 | 4:00.06 | 13102 | 31107
3 | 6:54.58 | 3:21.71 | 31108 | 46253
4 | 10:16.54 | 4:05.69 | 46254 | 64697
5 | 14:22.48 | 4:00.64 | 64698 | 82761
6 | 18:23.37 | 4:42.20 | 82762 | 103931
7 | 23:05.57 | 4:20.68 | 103932 | 123499
8 | 27:26.50 | 3:39.06 | 123500 | 139930
9 | 31:05.56 | 3:37.09 | 139931 | 156214
10 | 34:42.65 | 3:45.29 | 156215 | 173118
11 | 38:28.19 | 3:47.23 | 173119 | 190166
12 | 42:15.42 | 3:32.55 | 190167 | 206121
13 | 45:48.22 | 3:38.49 | 206122 | 222520

Range status and errors

Selected range

Filename D:\Music\Чайка\Various Artists - Чайка. Міжнародний молодіжний фестиваль.wav

Peak level 97.7 %
Extraction speed 4.4 X
Range quality 100.0 %
Test CRC 44A424A6
Copy CRC 44A424A6
Copy OK

No errors occurred

AccurateRip summary

Track 1 accurately ripped (confidence 1) [571934EC] (AR v1)
Track 2 accurately ripped (confidence 1) [19637242] (AR v1)
Track 3 accurately ripped (confidence 1) [CB6A04EE] (AR v1)
Track 4 accurately ripped (confidence 1) [6CD387E1] (AR v1)
Track 5 accurately ripped (confidence 1) [04F0E490] (AR v1)
Track 6 accurately ripped (confidence 1) [5039BBE0] (AR v1)
Track 7 accurately ripped (confidence 1) [0A334408] (AR v1)
Track 8 accurately ripped (confidence 1) [5FCF6588] (AR v1)
Track 9 accurately ripped (confidence 1) [854BFA94] (AR v1)
Track 10 accurately ripped (confidence 1) [449B9551] (AR v1)
Track 11 accurately ripped (confidence 1) [8ACF76DF] (AR v1)
Track 12 accurately ripped (confidence 1) [3EBDC97D] (AR v1)
Track 13 cannot be verified as accurate (confidence 1) [694A4971], AccurateRip returned [2892EC35] (AR v2)

12 track(s) accurately ripped
1 track(s) could not be verified as accurate

Some tracks could not be verified as accurate

End of status report

==== Log checksum 23D55AC0C048556E601C371910A2110C9ACFC6BE43CA6ADBB30F77064CF6757D ====


Збірка випущена до першого фестивалю Чайка в 2001 році. Знайшов її у себе нещодавно. Майже всі виконавці українські, але українською лише 4 пісні. Довго вагався чи викладати, але потім звернув увагу, що на трекері немає в нормальній якості ні "Івашечку", ні "Молоток", а "Кароліни взагалі не знайшов. Тож все ж таки наважився. Якщо модератори вирішать, що цій збірці на трекері не місто - не сперечатимусь. Можливо варто зробити потреково? Ну і mp3 звісно не проблема, якщо потрібно.

На обкладинці трек від D.A.Z Machine називається "Грузовик", але насправді там "Mr. Почтальон"

З "Кароліною" біда - не хоче Accurate Rip вважати трек "охайним". Але при прослуховуванні я проблем не чую

З.І. Оскільки виконавці грають в різних жанрах - розмістив збірку в категорії "Pop"


Якщо Ви справді бажаєте підтримати українське - після прослуховування, якщо музика вам сподобалась, придбайте ліцензійний диск. Підтримаймо вітчизняних виконавців!


Срібний реліз (на рейтинг впливає 50% завантаженого)
 Трекер:    Зареєстрований   

Завантажити / скачати українську музику



відео для новачків



 Зареєстрований:   2013-01-19 01:41
 Розмір:   346 MB 
 Оцінка музики:   10/10 (Голосів: 2)
   
Ваш часовий пояс: GMT + 2 Години

Нова тема   Відповісти