Завантажити та скачати торренти українською


Ніна та Тоня Матвієнко - Нове та найкраще (2012) [FLAC] | Pop Folk

Нові коментарі

Нова тема   Відповісти
Останній раз роздавалося irynalys (2016-12-11)
Автор Повідомлення
ssTAss 
Модератор музики


З нами з: 05.07.08
Востаннє: 11.12.16
Повідомлень: 10958

2013-01-18 22:25  
Ніна та Тоня Матвієнко - Нове та найкраще (2012) [FLAC] | Pop Folk

Ніна та Тоня Матвієнко - Нове та найкраще (2012) [FLAC] | Pop Folk


Стиль: Pop Folk
Країна, місто: Україна, с. Неділище / Київ
Сайти: Офіційний сайт Антоніни Матвієнко
Видавець: Астра Рекордс (AR 066-12)
Виконавці:
Матвієнко Ніна Митрофанівна
Матвієнко Антоніна Петрівна
Пісні:
    1. Не метелиця лугом стелиться
    2. Ой, у саду соловейко
    3. Явори
    4. Хто я для тебе
    5. Либідь
    6. Сизокрилий голубонько
    7. Тихо, тихо Дунай воду несе
    8. Дивна квітка
    9. Веснянка
    10. Дикі гуси
    11. Чарівна скрипка
    12. Як я люблю тебе
    13. Мої сни
    14. О, милий мій
    15. А може ти
    16. Сміються, плачуть солов’ї
    17. Ви не йдіть, літа молоді
    18. Колискова зорі
    19. Як я люблю тебе
    20. Ой, роду наш красний
    21. Гілечко завиваємо
    log
    Exact Audio Copy V1.0 beta 3 from 29. August 2011

    Отчёт EAC об извлечении, выполненном 17. января 2013, 21:37

    Nina and Tonya Matvienko / New And Very Best

    Дисковод: PIONEER DVD-RW DVR-215D Adapter: 3 ID: 1

    Режим чтения : Достоверность
    Использование точного потока : Да
    Отключение кэша аудио : Да
    Использование указателей C2 : Нет

    Коррекция смещения при чтении : 48
    Способность читать области Lead-in и Lead-out : Нет
    Заполнение пропущенных сэмплов тишиной : Да
    Удаление блоков с тишиной в начале и конце : Нет
    При вычислениях CRC использовались нулевые сэмплы : Да
    Интерфейс : Встроенный Win32-интерфейс для Win NT/2000
    Обработка зазоров : Добавлено к предыдущему треку

    Выходной формат : Пользовательский кодировщик
    Выбранный битрейт : 1024 kBit/s
    Качество : Высокий
    Добавление ID3-тега : Нет
    Утилита сжатия : C:\Program Files\Exact Audio Copy 1.0\Flac\flac.exe
    Дополнительные параметры : -V -8 -T "Genre=%genre%" -T "Artist=%artist%" -T "Title=%title%" -T "Album=%albumtitle%" -T "Date=%year%" -T "Tracknumber=%tracknr%" -T "Comment=%comment%" %source%

    TOC извлечённого CD

    Трек | Старт | Длительность | Начальный сектор | Конечный сектор
    ---------------------------------------------------------------------
    1 | 0:00.00 | 4:12.25 | 0 | 18924
    2 | 4:12.25 | 3:31.66 | 18925 | 34815
    3 | 7:44.16 | 5:31.46 | 34816 | 59686
    4 | 13:15.62 | 4:02.07 | 59687 | 77843
    5 | 17:17.69 | 4:02.54 | 77844 | 96047
    6 | 21:20.48 | 4:00.28 | 96048 | 114075
    7 | 25:21.01 | 4:07.37 | 114076 | 132637
    8 | 29:28.38 | 3:30.14 | 132638 | 148401
    9 | 32:58.52 | 1:29.37 | 148402 | 155113
    10 | 34:28.14 | 3:56.62 | 155114 | 172875
    11 | 38:25.01 | 3:58.49 | 172876 | 190774
    12 | 42:23.50 | 4:18.63 | 190775 | 210187
    13 | 46:42.38 | 3:29.29 | 210188 | 225891
    14 | 50:11.67 | 2:39.04 | 225892 | 237820
    15 | 52:50.71 | 4:22.64 | 237821 | 257534
    16 | 57:13.60 | 5:02.59 | 257535 | 280243
    17 | 62:16.44 | 3:19.08 | 280244 | 295176
    18 | 65:35.52 | 3:25.35 | 295177 | 310586
    19 | 69:01.12 | 4:34.15 | 310587 | 331151
    20 | 73:35.27 | 2:03.31 | 331152 | 340407
    21 | 75:38.58 | 3:49.66 | 340408 | 357648

    Трек 1

    Имя файла D:\+DVD Projects\_SAMPLE\CD_Nina and Tonya Matvienko\01 Nina Matvienko Ne metelytsya luhom stelytsya.wav

    Длина предзазора 0:00:02.00

    Пиковый уровень 98.0 %
    Скорость извлечения 2.2 X
    Качество трека 99.9 %
    CRC теста 1C9AC449
    CRC копии 1C9AC449
    Копирование... OK

    Трек 2

    Имя файла D:\+DVD Projects\_SAMPLE\CD_Nina and Tonya Matvienko\02 Nina Matvienko Oy, u sadu soloveyko.wav

    Длина предзазора 0:00:02.37

    Пиковый уровень 61.8 %
    Скорость извлечения 1.9 X
    Качество трека 100.0 %
    CRC теста E3551524
    CRC копии E3551524
    Копирование... OK

    Трек 3

    Имя файла D:\+DVD Projects\_SAMPLE\CD_Nina and Tonya Matvienko\03 Nina Matvienko, Roman Hrynkiv Yavory.wav

    Длина предзазора 0:00:02.37

    Пиковый уровень 98.0 %
    Скорость извлечения 2.2 X
    Качество трека 100.0 %
    CRC теста BD82ABB9
    CRC копии BD82ABB9
    Копирование... OK

    Трек 4

    Имя файла D:\+DVD Projects\_SAMPLE\CD_Nina and Tonya Matvienko\04 Nina Matvienko Khto ya dlya tebe.wav

    Длина предзазора 0:00:02.37

    Пиковый уровень 61.8 %
    Скорость извлечения 2.3 X
    Качество трека 100.0 %
    CRC теста 7BFD7638
    CRC копии 7BFD7638
    Копирование... OK

    Трек 5

    Имя файла D:\+DVD Projects\_SAMPLE\CD_Nina and Tonya Matvienko\05 Nina Matvienko Lybid.wav

    Длина предзазора 0:00:02.37

    Пиковый уровень 98.0 %
    Скорость извлечения 2.4 X
    Качество трека 100.0 %
    CRC теста BE1D2282
    CRC копии BE1D2282
    Копирование... OK

    Трек 6

    Имя файла D:\+DVD Projects\_SAMPLE\CD_Nina and Tonya Matvienko\06 Tonya Matvienko Syzokrylyi holubonko.wav

    Длина предзазора 0:00:02.37

    Пиковый уровень 77.8 %
    Скорость извлечения 2.2 X
    Качество трека 99.9 %
    CRC теста 183A710A
    CRC копии 183A710A
    Копирование... OK

    Трек 7

    Имя файла D:\+DVD Projects\_SAMPLE\CD_Nina and Tonya Matvienko\07 Nina Matvienko Tykho, tykho Dunay vodu nese.wav

    Длина предзазора 0:00:02.37

    Пиковый уровень 98.0 %
    Скорость извлечения 2.6 X
    Качество трека 100.0 %
    CRC теста 0CE4C571
    CRC копии 0CE4C571
    Копирование... OK

    Трек 8

    Имя файла D:\+DVD Projects\_SAMPLE\CD_Nina and Tonya Matvienko\08 Nina Matvienko Dyvna kvitka.wav

    Длина предзазора 0:00:02.37

    Пиковый уровень 69.3 %
    Скорость извлечения 2.6 X
    Качество трека 100.0 %
    CRC теста 3CCE7B36
    CRC копии 3CCE7B36
    Копирование... OK

    Трек 9

    Имя файла D:\+DVD Projects\_SAMPLE\CD_Nina and Tonya Matvienko\09 Nina Matvienko Vesnyanka.wav

    Длина предзазора 0:00:02.37

    Пиковый уровень 98.1 %
    Скорость извлечения 2.2 X
    Качество трека 100.0 %
    CRC теста 93BCF18C
    CRC копии 93BCF18C
    Копирование... OK

    Трек 10

    Имя файла D:\+DVD Projects\_SAMPLE\CD_Nina and Tonya Matvienko\10 Nina Matvienko Dyki husy.wav

    Длина предзазора 0:00:02.37

    Пиковый уровень 95.9 %
    Скорость извлечения 2.8 X
    Качество трека 100.0 %
    CRC теста 19B5FBB7
    CRC копии 19B5FBB7
    Копирование... OK

    Трек 11

    Имя файла D:\+DVD Projects\_SAMPLE\CD_Nina and Tonya Matvienko\11 Nina Matvienko Charivna skrypka.wav

    Длина предзазора 0:00:02.37

    Пиковый уровень 98.0 %
    Скорость извлечения 2.9 X
    Качество трека 100.0 %
    CRC теста 04EABAC9
    CRC копии 04EABAC9
    Копирование... OK

    Трек 12

    Имя файла D:\+DVD Projects\_SAMPLE\CD_Nina and Tonya Matvienko\12 Nina Matvienko Yak ya lyublyu tebe.wav

    Длина предзазора 0:00:02.37

    Пиковый уровень 77.8 %
    Скорость извлечения 3.1 X
    Качество трека 100.0 %
    CRC теста 0E8B6912
    CRC копии 0E8B6912
    Копирование... OK

    Трек 13

    Имя файла D:\+DVD Projects\_SAMPLE\CD_Nina and Tonya Matvienko\13 Nina Matvienko Moyi sny.wav

    Длина предзазора 0:00:02.37

    Пиковый уровень 69.3 %
    Скорость извлечения 3.0 X
    Качество трека 100.0 %
    CRC теста 511E3D71
    CRC копии 511E3D71
    Копирование... OK

    Трек 14

    Имя файла D:\+DVD Projects\_SAMPLE\CD_Nina and Tonya Matvienko\14 Nina Matvienko O, mylyi miy.wav

    Длина предзазора 0:00:02.37

    Пиковый уровень 98.0 %
    Скорость извлечения 2.5 X
    Качество трека 99.9 %
    CRC теста 6AD25644
    CRC копии 6AD25644
    Копирование... OK

    Трек 15

    Имя файла D:\+DVD Projects\_SAMPLE\CD_Nina and Tonya Matvienko\15 Nina Matvienko A mozhe, ty.wav

    Длина предзазора 0:00:02.37

    Пиковый уровень 69.3 %
    Скорость извлечения 3.3 X
    Качество трека 100.0 %
    CRC теста 0207765C
    CRC копии 0207765C
    Копирование... OK

    Трек 16

    Имя файла D:\+DVD Projects\_SAMPLE\CD_Nina and Tonya Matvienko\16 Nina Matvienko Chary nochi.wav

    Длина предзазора 0:00:02.37

    Пиковый уровень 98.1 %
    Скорость извлечения 3.1 X
    Качество трека 99.9 %
    CRC теста 720A6774
    CRC копии 720A6774
    Копирование... OK

    Трек 17

    Имя файла D:\+DVD Projects\_SAMPLE\CD_Nina and Tonya Matvienko\17 Nina Matvienko Vy ne ydit, lita molodi.wav

    Длина предзазора 0:00:02.37

    Пиковый уровень 98.0 %
    Скорость извлечения 3.3 X
    Качество трека 100.0 %
    CRC теста 0100BB04
    CRC копии 0100BB04
    Копирование... OK

    Трек 18

    Имя файла D:\+DVD Projects\_SAMPLE\CD_Nina and Tonya Matvienko\18 Nina Matvienko Kolyskova zori.wav

    Длина предзазора 0:00:02.37

    Пиковый уровень 98.0 %
    Скорость извлечения 3.4 X
    Качество трека 100.0 %
    CRC теста 2304AD53
    CRC копии 2304AD53
    Копирование... OK

    Трек 19

    Имя файла D:\+DVD Projects\_SAMPLE\CD_Nina and Tonya Matvienko\19 Nina Matvienko Yak ya lyublyu tebe.wav

    Длина предзазора 0:00:02.37

    Пиковый уровень 69.3 %
    Скорость извлечения 3.3 X
    Качество трека 99.9 %
    CRC теста 13B1C2AD
    CRC копии 13B1C2AD
    Копирование... OK

    Трек 20

    Имя файла D:\+DVD Projects\_SAMPLE\CD_Nina and Tonya Matvienko\20 Nina Matvienko Oy, rodu nash krasnyi.wav

    Длина предзазора 0:00:02.37

    Пиковый уровень 98.0 %
    Скорость извлечения 3.2 X
    Качество трека 100.0 %
    CRC теста 149135A0
    CRC копии 149135A0
    Копирование... OK

    Трек 21

    Имя файла D:\+DVD Projects\_SAMPLE\CD_Nina and Tonya Matvienko\21 Nina Matvienko, Roman Hrynkiv Hilechko zavyvayemo.wav

    Длина предзазора 0:00:02.37

    Пиковый уровень 98.0 %
    Скорость извлечения 3.7 X
    Качество трека 100.0 %
    CRC теста E0F35B3D
    CRC копии E0F35B3D
    Копирование... OK

    Ошибок не произошло

    Конец отчёта

    ---- CUETools DB Plugin V2.1.3

    [CTDB TOCID: jEl0RmqLxHQjJb5cQyqQZk4fAJM-] database access error: Невозможно разрешить удаленное имя: 'db.cuetools.net'

    ==== Контрольная сумма отчёта E97880F906910A06B29048B903EFFF8D25BAB0BB57B23F0281AA944F398FD267 ====
    fooCDtect
    fooCDtect - foobar2000 + auCDtect, baralgin.

    auCDtect: CD records authenticity detector, version 0.8.2
    Copyright (c) 2004 Oleg Berngardt. All rights reserved.
    Copyright (c) 2004 Alexander Djourik. All rights reserved.

    mode: 0

    ===========================================
    Track: 01 - Не метелиця лугом стелиться
    Quality: CDDA 100%
    ===========================================
    Track: 02 - Ой, у саду соловейко
    Quality: CDDA 99%
    ===========================================
    Track: 03 - Явори
    Quality: CDDA 100%
    ===========================================
    Track: 04 - Хто я для тебе
    Quality: CDDA 100%
    ===========================================
    Track: 05 - Либідь
    Quality: CDDA 86%
    ===========================================
    Track: 06 - Сизокрилий голубонько
    Quality: CDDA 100%
    ===========================================
    Track: 07 - Тихо, тихо Дунай воду несе
    Quality: CDDA 100%
    ===========================================
    Track: 08 - Дивна квітка
    Quality: CDDA 100%
    ===========================================
    Track: 09 - Веснянка ('Розійшлись хмарки, гляне сонечко')
    Quality: CDDA 100%
    ===========================================
    Track: 10 - Дикі гуси
    Quality: CDDA 100%
    ===========================================
    Track: 11 - Чарівна скрипка
    Quality: CDDA 99%
    ===========================================
    Track: 12 - Як я люблю тебе
    Quality: CDDA 100%
    ===========================================
    Track: 13 - Мої сни
    Quality: MPEG 85%
    ===========================================
    Track: 14 - О, милий мій
    Quality: CDDA 62%
    ===========================================
    Track: 15 - А може ти
    Quality: CDDA 100%
    ===========================================
    Track: 16 - Сміються, плачуть солов'ї ('Чари ночі')
    Quality: CDDA 100%
    ===========================================
    Track: 17 - Ви не йдіть, літа молоді
    Quality: CDDA 100%
    ===========================================
    Track: 18 - Колискова зорі
    Quality: CDDA 100%
    ===========================================
    Track: 19 - Як я люблю тебе
    Quality: CDDA 100%
    ===========================================
    Track: 20 - Ой, роду наш красний
    Quality: CDDA 100%
    ===========================================
    Track: 21 - Гілечко завиваємо
    Quality: MPEG 95%
    ===========================================

Тривалість: 01:19:с29
Мова: українська
Аудіо-кодек: FLAC
Бітрейт: 743 кб/с
Джерело: рутрекер, автор ріпу AVV_UA (зібрано в образ, виправлено теги, куе)
Додаткова інформація:
Цією збіркою розпочинається дискографія Тоні Матвієнко – якщо не рахувати спільну пісню з Арсеном Мірзояном-Бабуркою в його альбомі "Ґудзики". До того ж, це – перший диск, на якому можна почути одночасно і Ніну Матвієнко (маму), і Тоню Матвієнко (дочку). Власне, тут можна знайти по-справжньому раритетні записи Ніни Матвієнко – ну а пісні Тоні, ясна річ, робилися зовсім нещодавно. Отже, це відчутно різна музика, різні способи створювати об’ємну звукову картинку. З іншого боку, на цих записах Ніна і Тоня – майже ровесниці, і в цьому теж є своя родзинка. На додачу – манери виконання у Ніни й Тоні дійсно схожі, і буває доволі важко розрізнити, де звучить народна пісня, а де – авторська. Саме тому відмінності у загальному звучанні одночасно і заважають, і допомагають сприйняттю платівки, як чогось цілісного – одне виростає з іншого, молодше є прямим наслідком старшого. Тим самим, можливо, Тоня Матвієнко натякає, що – хай і сучасними засобами, це природно – спробує буквально, а не фігурально продовжити справу своєї мами.


Якщо Ви справді бажаєте підтримати українське - після прослуховування, якщо музика вам сподобалась,
придбайте ліцензійний диск.
Підтримаймо вітчизняних виконавців!


Срібний реліз (на рейтинг впливає 50% завантаженого)
 Трекер:    Зареєстрований   

Завантажити / скачати українську музику



відео для новачків



 Зареєстрований:   2013-01-18 22:25
 Розмір:   428 MB 
 Оцінка музики:   8.9/10 (Голосів: 33)
   
civ 
VIP


З нами з: 16.02.11
Востаннє: 10.12.16
Повідомлень: 429

2013-01-19 01:13  
Це ж треба було додуматися спаплюжити обкладинку отим бічним написом...
sko4 
Поважний учасник


З нами з: 23.06.08
Востаннє: 08.12.16
Повідомлень: 181

2013-01-19 13:57  
civ написано:
Це ж треба було додуматися спаплюжити обкладинку отим бічним написом...


Бо "Астра рекордс". Їхні видання класичної музики текстовані виключно російською. А з іншого боку, тут мабуть знову ж таки економія: видання призначене для продажу на території всього колишнього "совка", тому обкладинка універсальна. Та й зрештою за кордоном цей диск куплять більше ніж "...На Вкраїні милій...".
Як не прикро це визнавати, але це незаперечний факт.

От тому додуматися досить легко.

civ 
VIP


З нами з: 16.02.11
Востаннє: 10.12.16
Повідомлень: 429

2013-01-19 14:47  
Цей напис - єдиний, виконаний російською. Навіть імена виконавиць усюди тільки українською. Не кажучи вже про список пісень та їх авторів. Тому я і вважаю його появу на обкладинці дивною і нелогічною. :-) Та це все дурне...
sko4 
Поважний учасник


З нами з: 23.06.08
Востаннє: 08.12.16
Повідомлень: 181

2013-01-19 15:11  
справді, я ще на той момент не бачив, тому думав що вміст теж двомовний.
jinotot 
Почесний оцифрувальник літератури


З нами з: 28.01.09
Востаннє: 04.12.16
Повідомлень: 3235

2013-01-19 15:26  
Що там той напис? А оце вам очі не муляє?
ssTAss написано:
Матвієнки
Жіночі українські прізвища на -ко не відмінюються і не можуть мати форму множини. Якби йшлося про родину, тобто не лише про жінок, а й про чоловіків, то все було б гаразд, а так... (Десь, до речі, ще є реліз із Білоножками, то там зворотня ситуація — прізвище вжито в однині, хоча мало б бути у множині — Віталій та Світлана Білоножки).
ssTAss 
Модератор музики


З нами з: 05.07.08
Востаннє: 11.12.16
Повідомлень: 10958

2013-01-19 16:30  
jinotot написано:
А оце вам очі не муляє?

муляє, але написав так як на диску
кажете змінити?

Додано через 4 хвилини 21 секунду:

jinotot'е, вже маю для Вас нормальний юзербар
ось
Ніна та Тоня Матвієнко - Нове та найкраще (2012) [FLAC] | Pop Folk
Код:
[imgalt]http://toloka.to/photos/1301191628572760_f0_0.gif[/imgalt]

jinotot 
Почесний оцифрувальник літератури


З нами з: 28.01.09
Востаннє: 04.12.16
Повідомлень: 3235

2013-01-19 21:12  
ssTAss написано:
муляє, але написав так як на диску
кажете змінити?
ssTAss’е, та я розумію, що то видавець "дуже талановитий". Цікаво, а самі виконавиці куди дивилися? Чи, може, вони вважають, що так правильніше?
Можливо, краще змінити з міркувань оптимізації пошуку, бо навряд чи хтось шукатиме за запитом "Матвієнки", а на запит "Матвієнко" пошук по Толоці цей реліз не знаходить.

ssTAss написано:
jinotot'е, вже маю для Вас нормальний юзербар
Красно дякую!
folkermann 
Частий відвідувач


З нами з: 20.02.12
Востаннє: 09.12.16
Повідомлень: 39

2013-01-30 21:13  
а в якості 320кбс буде?
markesha 
Новенький


З нами з: 04.04.13
Востаннє: 01.08.16
Повідомлень: 10

2013-04-04 11:57  
Нарешті потрапив на цей сайт. Дуже люблю українські пісні. Зібрав вже предостатньо. Матвієнко люблю особливо, у неї багатющий тембр голосу. І репертуар не грішить попсою, а саме прекрасний співучий український фольклор. Одне погано: вона наважилася спаплюжити свій диск крамольним написом противною мовою. Яка ганьба! 

Москвич

ssTAss 
Модератор музики


З нами з: 05.07.08
Востаннє: 11.12.16
Повідомлень: 10958

2013-04-04 23:16  
markesha написано:

Наконец то попал на этот сайт. Очень люблю украинские песни. Собрал уже предостаточно. Матвиенко люблю особенно, у нее богатейший тембр голоса. И репертуар не грешит попсой, а именно прекрасный певучий украинский фольклор. Одно плохо: она осмелилась спаплюжити свой диск крамольной надписью на противном языке. Какой позор!

Москвич

в нас спілкуються українською

markesha 
Новенький


З нами з: 04.04.13
Востаннє: 01.08.16
Повідомлень: 10

2013-04-09 11:45  
Дякую за справедливе зауваження, вельмишановні! Але чомусь саме за змістом мого іронічного послання так ніхто і не висловився.
Пишу з великими складнощами, бо не маю української клавіатури. Та й українську мову за багато років вже призабув.

civ 
VIP


З нами з: 16.02.11
Востаннє: 10.12.16
Повідомлень: 429

2013-04-09 17:11  
markesha, це вже обговорили. А вже як намальовано - то не зітреш...
pony 
VIP


З нами з: 14.05.10
Востаннє: 11.12.16
Повідомлень: 312

2013-08-24 21:06  
шкода,що всі пісні одним файлом Sad (1)
ssTAss 
Модератор музики


З нами з: 05.07.08
Востаннє: 11.12.16
Повідомлень: 10958

2013-08-24 23:05  
pony написано:
шкода,що всі пісні одним файлом

Wide grin
відкривайте оцей файл
ssTAss написано:
Ніна та Тоня Матвієнки - Нове та найкраще.cue

і буде Вам щастя

Ваш часовий пояс: GMT + 2 Години

Нова тема   Відповісти