Завантажити та скачати торренти українською


Міняючи реальність / The Adjustment Bureau (2011) 720p Ukr/Eng | sub Ukr/Eng

Нові коментарі

Нова тема   Відповісти
Автор Повідомлення
DеLight 
Відео Гуртом - фільмокрай
Відео Гуртом - фільмокрай


З нами з: 24.08.11
Востаннє: 17.11.16
Повідомлень: 664

2013-01-18 13:20  
Міняючи реальність / The Adjustment Bureau (2011) 720p Ukr/Eng | sub Ukr/Eng

Міняючи реальність / The Adjustment Bureau (2011) 720p Ukr/Eng | sub Ukr/Eng

«Заради неї він готовий змінити світ»


Жанр: романтичний, трилер, фантастика
Країна: США



Кіностудія / кінокомпанія: Electric Shepherd Productions, Gambit Pictures, Media Rights Capital, Universal Pictures
Режисер: Джордж Нолфі / George Nolfi
Актори: Метт Деймон / Matt Damon, Емілі Блант / Emily Blunt, Майкл Келлі / Michael Kelly, Ентоні Макі / Anthony Mackie, Джон Слеттері / John Slattery, Ліза Торесон / Lisa Thoreson, Теренс Стемп / Terence Stamp, Флоренс Кастрінер / Florence Kastriner, Філліс Макбрайд / Phyllis MacBryde, Наталі Картер / Natalie Carter, Джон Стюарт / Jon Stewart та інші

Сюжет:
Девід ніколи не задумувався, чим він завдячує своєму життєвому успіху, все, що з ним відбувалося, він сприймав як належне. Такою природною і щасливою для нього стала і зустріч з Елізою. І все ніби в його житті йде за планом, але насправді цей план належить не йому. Бо в шаленому русі сучасного світу ми всі лише маріонетки в руках тих, хто змінює нашу реальність.


Тривалість: 01:45:50
Якість: 720p [ріп від CHD]

Відео:
кодек:
розмір кадру: 1280 x 694
бітрейт: 5 264 кб/с

Аудіо #1:
мова: українська
переклад: багатоголосий закадровий
кодек: 5.1
бітрейт: 384 кб/с

Джерело озвучення:


Аудіо #2:
мова: англійська
переклад: оригінал
кодек: 5.1
бітрейт: 1509 кб/с

Субтитри #1:
мова: українська
тип: програмні (м'які)
формат: *.srt

Джерело субтитрів:


Субтитри #2:
мова: англійська
тип: програмні (м'які)
формат: *.srt


Український трейлер (24tv.ua)


MediaInfo

Код:
General
Unique ID                      : 232655848454789164828033383684836430832 (0xAF07E2F378DCE0EC8F2E0B8B7EE813F0)
Complete name                  : D:\Torrents\The Adjustment Bureau (2011) 720p [Ukr, Eng] [Hurtom & UkrDub].mkv
Format                         : Matroska
Format version                 : Version 4 / Version 2
File size                      : 5.29 GiB
Duration                       : 1h 45mn
Overall bit rate               : 7 159 Kbps
Movie name                     : The Adjustment Bureau (2011) 720p [Ukr, Eng] [Hurtom] by Delight
Encoded date                   : UTC 2010-02-22 21:41:31
Writing application            : mkvmerge v5.9.0 ('On The Loose') built on Dec  9 2012 15:37:01
Writing library                : libebml v1.3.0 + libmatroska v1.4.0

Video
ID                             : 1
Format                         : AVC
Format/Info                    : Advanced Video Codec
Format profile                 : [email protected]
Format settings, CABAC         : Yes
Format settings, ReFrames      : 9 frames
Codec ID                       : V_MPEG4/ISO/AVC
Duration                       : 1h 45mn
Bit rate                       : 5 264 Kbps
Width                          : 1 280 pixels
Height                         : 694 pixels
Display aspect ratio           : 1.85:1
Frame rate mode                : Constant
Frame rate                     : 23.976 fps
Color space                    : YUV
Chroma subsampling             : 4:2:0
Bit depth                      : 8 bits
Scan type                      : Progressive
Bits/(Pixel*Frame)             : 0.247
Stream size                    : 3.79 GiB (72%)
Title                          : The Adjustment Bureau (2011) 720p [CHD]
Writing library                : core 115 r1947+532 361db68
Encoding settings              : cabac=1 / ref=9 / deblock=1:-3:-3 / analyse=0x3:0x113 / me=umh / subme=10 / psy=1 / fade_compensate=0.00 / psy_rd=1.05:0.10 / mixed_ref=1 / me_range=32 / chroma_me=1 / trellis=2 / 8x8dct=1 / cqm=2 / deadzone=21,11 / fast_pskip=0 / chroma_qp_offset=-2 / threads=12 / sliced_threads=0 / nr=0 / decimate=1 / interlaced=0 / bluray_compat=0 / constrained_intra=0 / fgo=0 / bframes=6 / b_pyramid=2 / b_adapt=2 / b_bias=0 / direct=3 / weightb=1 / open_gop=0 / weightp=2 / keyint=250 / keyint_min=23 / scenecut=40 / intra_refresh=0 / rc_lookahead=40 / rc=2pass / mbtree=1 / bitrate=5264 / ratetol=1.0 / qcomp=0.60 / qpmin=1 / qpmax=63 / qpstep=4 / cplxblur=20.0 / qblur=0.5 / vbv_maxrate=40000 / vbv_bufsize=30000 / nal_hrd=none / ip_ratio=1.40 / aq=1:0.70
Language                       : English
Default                        : Yes
Forced                         : No

Audio #1
ID                             : 2
Format                         : AC-3
Format/Info                    : Audio Coding 3
Mode extension                 : CM (complete main)
Format settings, Endianness    : Big
Codec ID                       : A_AC3
Duration                       : 1h 45mn
Bit rate mode                  : Constant
Bit rate                       : 384 Kbps
Channel(s)                     : 6 channels
Channel positions              : Front: L C R, Side: L R, LFE
Sampling rate                  : 48.0 KHz
Bit depth                      : 16 bits
Compression mode               : Lossy
Stream size                    : 291 MiB (5%)
Title                          : 5.1; 384 kbps; багатоголосий закадровий {UkrDUB}
Language                       : Ukrainian
Default                        : Yes
Forced                         : No

Audio #2
ID                             : 3
Format                         :
Format/Info                    : Digital Theater Systems
Mode                           : 16
Format settings, Endianness    : Big
Codec ID                       : A_DTS
Duration                       : 1h 45mn
Bit rate mode                  : Constant
Bit rate                       : 1 509 Kbps
Channel(s)                     : 6 channels
Channel positions              : Front: L C R, Side: L R, LFE
Sampling rate                  : 48.0 KHz
Bit depth                      : 24 bits
Compression mode               : Lossy
Stream size                    : 1.12 GiB (21%)
Title                          : 5.1; 1509 kbps; original
Language                       : English
Default                        : No
Forced                         : No

Text #1
ID                             : 4
Format                         : UTF-8
Codec ID                       : S_TEXT/UTF8
Codec ID/Info                  : UTF-8 Plain Text
Title                          : full [R5]
Language                       : Ukrainian
Default                        : No
Forced                         : No

Text #2
ID                             : 5
Format                         : UTF-8
Codec ID                       : S_TEXT/UTF8
Codec ID/Info                  : UTF-8 Plain Text
Title                          : full
Language                       : English
Default                        : No
Forced                         : No

Світлини















Джерело: &
Дякуємо команді UkrDUB.net за озвучення фільму


Авторський реліз (завантажувати можна без реєстрації)
 Трекер:    Зареєстрований   

Завантажити / скачати фільм українською



відео для новачків



 Зареєстрований:   2013-01-18 13:20
 Розмір:   5.29 GB 
 Оцінка фільму:   9.8/10 (Голосів: 35)
   
ViviD 
Новенький


З нами з: 16.11.12
Востаннє: 06.11.16
Повідомлень: 10

2013-01-19 00:10  
Прегарний фільм.
zanevsky 
Свій


З нами з: 14.03.09
Востаннє: 07.12.16
Повідомлень: 85

2013-01-19 10:45  
дякую щиро за чудове кіно! єдине – я не зрозумів, чому жанр окреслено як фантастика? то мабуть, через їхні капелюхи Happy
chorny 
Новенький


З нами з: 17.12.08
Востаннє: 03.12.16
Повідомлень: 8

2013-01-20 10:15  
дуже гарне кіно
westsideua 
Новенький


З нами з: 02.10.09
Востаннє: 13.11.16
Повідомлень: 16

2013-03-24 11:19  
Дякую за озвучення нових фільмів!!!
але щодо цього фільму - дуже не сподобалось озвучення "жіночих" ролей... увесь фільми різало вуха...
хлопці спрацювали на 5+

А взагалі дуже дякую!!! Wide grin

waldi-hurtom 
VIP


З нами з: 07.10.12
Востаннє: 08.12.16
Повідомлень: 613

2013-03-25 18:38  
Дуже непоганий фільм! Озвучка також непогана, може, рівень українських голосів можна було трошки вище зробити. Але жіночної проблеми не помітив. 9 балів. Дякую!
westsideua 
Новенький


З нами з: 02.10.09
Востаннє: 13.11.16
Повідомлень: 16

2013-03-26 16:22  
waldi-hurtom
по-перше дикція залишає бажати кращого...
та й знаєте, на мою думку, як не як голос має хоч трохи відповідати самому герою...

жіночий голос місцями був такий ніби "озвучницю" випхали на сцену і примусили...

а взагалі щиро дякую за працю над усім УКРАЇНСЬКИМ...!!!

loven 
Новенький


З нами з: 18.11.12
Востаннє: 03.12.16
Повідомлень: 5

2013-11-21 22:30  
Переклад та озвучка від ТРК Україна - набагато професійніші.

Додано через 2 хвилини 3 секунди:

Посилання на сторонні ресурси заборонені!

Ваш часовий пояс: GMT + 2 Години

Нова тема   Відповісти