Завантажити та скачати торренти українською


Вічне сяйво чистого розуму / Eternal Sunshine Of The Spotless Mind (2004) 1080p Ukr/Eng | Sub Ukr/Eng

Нові коментарі

Нова тема   Відповісти
Автор Повідомлення
Anonymous 







2013-01-12 20:15  
Вічне сяйво чистого розуму / Eternal Sunshine Of The Spotless Mind (2004) 1080p Ukr/Eng | Sub Ukr/Eng




Альтернативний український постер

Вічне сяйво чистого розуму / Eternal Sunshine Of The Spotless Mind (2004) 1080p Ukr/Eng | Sub Ukr/Eng


Жанр: драма, мелодрама, фантастика
Країна: США

Top 250 #80, Премія Оскар (1995) за кращий оригінальний сценарій

Кіностудія / кінокомпанія: Focus Features, Anonymous Content, This Is That Productions
Режисер: Мішель Ґондрі / Michel Gondry
Актори: Джим Керрі / Jim Carrey, Кейт Вінслет / Kate Winslet, Джеррі Роберт Берн / Gerry Robert Byrne, Елайджа Вуд / Elijah Wood, Томас Джей Раян / Thomas Jay Ryan, Марк Руффало / Mark Ruffalo, Джейн Адамс / Jane Adams, Девід Крос / David Cross, Кірстен Данст / Kirsten Dunst, Том Вілкінсон / Tom Wilkinson, Райан Bітні / Ryan Whitney, Деббон Аєр / Debbon Ayer, Амір Алі Саід / Amir Ali Said, Браян Прайс / Brian Price, Полі Літт / Paulie Litt

Сюжет:
Нарешті винайшли машину, що дозволяє позбутися від будь-яких спогадів. Джоель і Клементина вирішують позбутися спогадів один про одного. Але в пам'яті Джоеля все ще живі самі ніжні моменти їх почуттів. Чим менше він пам'ятає, тим більше кохає. Розуміючи, що він просто обожнює Клементину, Джоель намагається знайти спосіб, щоб повернути коханій пам'ять про минуле. Поки ще не запізно ... Він повинен будь-що перемогти ненависний комп'ютерний мозок!


рейтинг MPAA: R - особам до 17 років обов'язкова присутність батьків або дорослого опікуна
Вікова категорія: 16+

Тривалість: 01:47:41
Якість: 1080p
Відео:
кодек:
розмір кадру: 1920x1040
бітрейт: 9420 кб/с

Аудіо # 1:
мова: українська
переклад: двоголосий закадровий
кодек: 2.0
бітрейт: 192 кб/с
Інформація про озвучення

Переклад: Лідії Громовенко
Літературний редактор: Олена Ковалевська
Звукорежисер: Олена Мойжес
Режисер: Володимир Сова
Ролі озвучили: Андрій Твердак і Лариса Руснак

Фільм перекладено і озвучено на студії 1+1
Аудіо # 2:
мова: англійська
переклад: оригінал
кодек: 5.1
бітрейт: 448 кб/с

Субтитри:
мова: українська
тип: програмні (м'які)
формат: *.srt

Субтитри:
мова: англійська
тип: програмні (м'які)
формат: *.srt

Збережені оригінальні розділи, як на Blu-ray.
MediaInfo
General
Unique ID : 182254563850057526248963811515869708768 (0x891CF3C382BB7A7D918C3EAB187841E0)
Complete name : Eternals.Sunshine.of.the.Spotless.Mind.2004..1080p.Ukr.Eng.mkv
Format : Matroska
Format version : Version 4 / Version 2
File size : 7.56 GiB
Duration : 1h 47mn
Overall bit rate : 10.1 Mbps
Movie name : Вічне сяйво чистого розуму / Вечное сияние чистого разума / Eternal Sunshine of the Spotless Mind (2004)
Encoded date : UTC 2010-02-22 21:41:31
Writing application : mkvmerge v5.9.0 ('On The Loose') built on Dec 9 2012 15:37:01
Writing library : libebml v1.3.0 + libmatroska v1.4.0

Video
ID : 1
Format : AVC
Format/Info : Advanced Video Codec
Format profile : [email protected]
Format settings, CABAC : Yes
Format settings, ReFrames : 4 frames
Codec ID : V_MPEG4/ISO/AVC
Duration : 1h 47mn
Bit rate : 9 420 Kbps
Width : 1 920 pixels
Height : 1 040 pixels
Display aspect ratio : 1.85:1
Frame rate mode : Constant
Frame rate : 23.976 fps
Color space : YUV
Chroma subsampling : 4:2:0
Bit depth : 8 bits
Scan type : Progressive
Bits/(Pixel*Frame) : 0.197
Stream size : 6.93 GiB (92%)
Title : Release by AlexKa
Writing library : core 129 r2230 1cffe9f
Encoding settings : cabac=1 / ref=4 / deblock=1:-3:-3 / analyse=0x3:0x133 / me=umh / subme=10 / psy=1 / psy_rd=1.00:0.10 / mixed_ref=1 / me_range=32 / chroma_me=1 / trellis=2 / 8x8dct=1 / cqm=0 / deadzone=21,11 / fast_pskip=0 / chroma_qp_offset=-3 / threads=12 / lookahead_threads=2 / sliced_threads=0 / nr=0 / decimate=0 / interlaced=0 / bluray_compat=0 / constrained_intra=0 / bframes=4 / b_pyramid=2 / b_adapt=2 / b_bias=0 / direct=3 / weightb=1 / open_gop=0 / weightp=2 / keyint=240 / keyint_min=23 / scenecut=40 / intra_refresh=0 / rc=2pass / mbtree=0 / bitrate=9420 / ratetol=1.0 / qcomp=0.60 / qpmin=0 / qpmax=69 / qpstep=4 / cplxblur=20.0 / qblur=0.5 / ip_ratio=1.40 / pb_ratio=1.30 / aq=1:0.80
Language : English
Default : Yes
Forced : No

Audio #1
ID : 2
Format : AC-3
Format/Info : Audio Coding 3
Mode extension : CM (complete main)
Format settings, Endianness : Big
Codec ID : A_AC3
Duration : 1h 47mn
Bit rate mode : Constant
Bit rate : 192 Kbps
Channel(s) : 2 channels
Channel positions : Front: L R
Sampling rate : 48.0 KHz
Bit depth : 16 bits
Compression mode : Lossy
Stream size : 148 MiB (2%)
Title : Ukr DVO 1+1 192 Kbps 2.0 [Hurtom.com, karvai0]
Language : Ukrainian
Default : Yes
Forced : No

Audio #2
ID : 3
Format : AC-3
Format/Info : Audio Coding 3
Mode extension : CM (complete main)
Format settings, Endianness : Big
Codec ID : A_AC3
Duration : 1h 47mn
Bit rate mode : Constant
Bit rate : 448 Kbps
Channel(s) : 6 channels
Channel positions : Front: L C R, Side: L R, LFE
Sampling rate : 48.0 KHz
Bit depth : 16 bits
Compression mode : Lossy
Stream size : 345 MiB (4%)
Title : Eng
Language : English
Default : No
Forced : No

Text #1
ID : 4
Format : UTF-8
Codec ID : S_TEXT/UTF8
Codec ID/Info : UTF-8 Plain Text
Title : Ukr Full (Hurtom.com, Gashik)
Language : Ukrainian
Default : Yes
Forced : No

Text #2
ID : 5
Format : UTF-8
Codec ID : S_TEXT/UTF8
Codec ID/Info : UTF-8 Plain Text
Title : Eng
Language : English
Default : No
Forced : No

Menu
00:00:00.000 : :Chapter 01
00:03:42.722 : :Chapter 02
00:10:30.755 : :Chapter 03
00:13:24.845 : :Chapter 04
00:17:37.388 : :Chapter 05
00:19:34.840 : :Chapter 06
00:25:11.301 : :Chapter 07
00:28:00.302 : :Chapter 08
00:35:08.064 : :Chapter 09
00:43:06.083 : :Chapter 10
00:49:28.590 : :Chapter 11
00:52:13.213 : :Chapter 12
00:59:23.977 : :Chapter 13
01:02:52.727 : :Chapter 14
01:15:49.920 : :Chapter 15
01:21:27.799 : :Chapter 16
01:24:22.182 : :Chapter 17
01:31:44.665 : :Chapter 18
01:35:51.746 : :Chapter 19
01:44:05.280 : :Chapter 20
01:47:38.785 : :Chapter 21


Джерела та подяки: ріп відео, оригінальний звук та субтитри - AlexKa (рутор); українська доріжка: зведення - karvai0, запис з ТБ - Tanat13; українські субтитри: Gashik; український постер: Eric_Jefferson (всі - Гуртом).

Особиста оцінка: 10 - рекомендую всім

ЗАЛИШАЙТЕСЬ ЯКОМОГА ДОВШЕ НА РОЗДАЧІ!

СКАЧАВ САМ - ДАЙ СКАЧАТИ ІНШИМ


Срібний реліз (на рейтинг впливає 50% завантаженого)
 Трекер:    Зареєстрований   

Завантажити / скачати фільм українською



відео для новачків



 Зареєстрований:   2013-01-12 20:15
 Розмір:   7.56 GB 
 Оцінка фільму:   7.1/10 (Голосів: 36)
   
falen669 
Новенький


З нами з: 05.02.13
Востаннє: 16.02.14
Повідомлень: 3

2013-02-21 17:21  
роздайте будь-ласка!
kino. 
Модератор відео


З нами з: 27.06.10
Востаннє: 07.12.16
Повідомлень: 2900

2013-02-21 17:28  
falen669 Піднімай рейтинг, бо з таким (0.02) завантаження заборонено
mike_ukrainian 
Новенький


З нами з: 28.09.09
Востаннє: 23.11.16
Повідомлень: 2

2013-03-01 23:42  
Гарне кіно.
Vladislav_KVS 
Новенький


З нами з: 09.09.10
Востаннє: 01.04.13
Повідомлень: 1

2013-03-10 14:12  
Передивлял кіноху разів 5 - дуже заспокоює! Перегляну в українському перекладі - дуже цікаво!
boroznaya 
VIP


З нами з: 02.11.12
Востаннє: 07.12.16
Повідомлень: 1876

2015-08-18 21:06  
Безглузда дурня... Тільки час марно витратила...
Ваш часовий пояс: GMT + 2 Години

Нова тема   Відповісти