Завантажити та скачати торренти українською


Камерний хор "Київ" - Українська народна музика (2001) [FLAC] | Chorus

Нові коментарі

Нова тема   Відповісти
Автор Повідомлення
bohun 
VIP


З нами з: 21.03.09
Востаннє: 08.12.16
Повідомлень: 271

2013-01-10 21:20  
Камерний хор "Київ" - Українська народна музика (2001) [FLAC] | Chorus

Камерний хор "Київ" - Українська народна музика (2001) [FLAC] | Chorus


Стиль: Folk Classic
Країна, місто: Україна, Київ
Видавець: Dotcom Recordings Inc.
Виконавці:

    Сопрано:
    Ірина Ніконенко
    Ярослава Побережна
    Неля Погосова
    Юлія Риссак
    Анжеліка Кондратьєва

    Альти:
    Тетяна Гавриленко
    Людмила Лопушко
    Валентина Селезньова
    Тетяна Золотаревська
    Тетяна Лебединцева

    Тенори:
    Олександр Білошапка
    Віктор Овдій
    Олег Корбань
    Валерій Таран
    Руслан Танський

    Баси:
    Юрій Євенко
    Павло Мінжулін
    Олег Тищенко
    Сергій Шевчук

    Баритони:
    Євген Полудненко
    Олександр Бойко

    Дириґент:
    Микола Гобдич
Пісні:
    1. Сусідка
    2. Там на горі, на Маківці
    3. Пиймо, друзі
    4. Гей видно село
    5. Летів пташок
    6. Дам я яловицю
    7. Ой сивая зозуленька
    8. Порізала пальчик
    9. Тиха вода
    10. На вулиці скрипка грає
    11. Гаю-гаю, зелен розмаю
    12. За городком качки пливуть
    13. Веснянки
    14. Дую-дуба
    15. Ой у вишневому садочку
    16. Ой у полі
    17. Вівчарик
    18. Ой ви, донці
    19. Їхав козак на війноньку
Звіт EAC
Exact Audio Copy V0.99 prebeta 5 from 4. May 2009

EAC extraction logfile from 4. November 2010, 3:44

Kyiv Chamber Choir / Ukrainian Folk Music

Used drive : HL-DT-STDVD-RAM GSA-H54N Adapter: 0 ID: 0

Read mode : Secure
Utilize accurate stream : Yes
Defeat audio cache : Yes
Make use of C2 pointers : No

Read offset correction : 102
Overread into Lead-In and Lead-Out : No
Fill up missing offset samples with silence : Yes
Delete leading and trailing silent blocks : No
Null samples used in CRC calculations : Yes
Used interface : Native Win32 interface for Win NT & 2000

Used output format : User Defined Encoder
Selected bitrate : 320 kBit/s
Quality : High
Add ID3 tag : No
Command line compressor : C:\Program Files\Exact Audio Copy\Flac\flac.exe
Additional command line options : -8 -V %s

TOC of the extracted CD

Track | Start | Length | Start sector | End sector
---------------------------------------------------------
1 | 0:00.00 | 1:50.21 | 0 | 8270
2 | 1:50.21 | 2:09.13 | 8271 | 17958
3 | 3:59.34 | 2:53.14 | 17959 | 30947
4 | 6:52.48 | 2:36.12 | 30948 | 42659
5 | 9:28.60 | 3:15.32 | 42660 | 57316
6 | 12:44.17 | 1:59.13 | 57317 | 66254
7 | 14:43.30 | 4:36.00 | 66255 | 86954
8 | 19:19.30 | 2:38.00 | 86955 | 98804
9 | 21:57.30 | 2:27.56 | 98805 | 109885
10 | 24:25.11 | 1:52.50 | 109886 | 118335
11 | 26:17.61 | 3:50.20 | 118336 | 135605
12 | 30:08.06 | 2:01.42 | 135606 | 144722
13 | 32:09.48 | 2:43.38 | 144723 | 156985
14 | 34:53.11 | 1:50.36 | 156986 | 165271
15 | 36:43.47 | 1:48.06 | 165272 | 173377
16 | 38:31.53 | 3:05.25 | 173378 | 187277
17 | 41:37.03 | 5:01.24 | 187278 | 209876
18 | 46:38.27 | 6:28.71 | 209877 | 239047
19 | 53:07.23 | 3:18.38 | 239048 | 253935

Range status and errors

Selected range

Filename C:\EAC\Kyiv Chamber Choir - Ukrainian Folk Music.wav

Peak level 99.9 %
Range quality 100.0 %
Test CRC 1A94FBA6
Copy CRC 1A94FBA6
Copy OK

No errors occurred

AccurateRip summary

Track 1 not present in database
Track 2 not present in database
Track 3 not present in database
Track 4 not present in database
Track 5 not present in database
Track 6 not present in database
Track 7 not present in database
Track 8 not present in database
Track 9 not present in database
Track 10 not present in database
Track 11 not present in database
Track 12 not present in database
Track 13 not present in database
Track 14 not present in database
Track 15 not present in database
Track 16 not present in database
Track 17 not present in database
Track 18 not present in database
Track 19 not present in database

None of the tracks are present in the AccurateRip database

End of status report
Тривалість: 00:56:27
Мова: українська
Аудіо-кодек: FLAC
Бітрейт: 601 кітб/с
Джерело: інший трекер (ripped by Darkman), виправлено cue-теги

Якщо Ви справді бажаєте підтримати українське - після прослуховування, якщо музика вам сподобалась, придбайте ліцензійний диск. Підтримаймо вітчизняних виконавців!


Срібний реліз (на рейтинг впливає 50% завантаженого)
 Трекер:    Зареєстрований   

Завантажити / скачати українську музику



відео для новачків



 Зареєстрований:   2013-01-10 21:20
 Розмір:   265 MB 
 Оцінка музики:   10/10 (Голосів: 4)
   
ssTAss 
Модератор музики


З нами з: 05.07.08
Востаннє: 09.12.16
Повідомлень: 10948

2013-01-10 21:46  
bohun написано:
Країна, місто: Канада, Торонто

хіба камерний хор "Київ" з Канади? це диск там випущений, а хор український

і додайте під спойлер вміст лог-файлу

Форкуш 
VIP


З нами з: 03.02.10
Востаннє: 09.12.16
Повідомлень: 1545

2013-01-10 21:59  
Керівник хору знявся в фільмах Консонанс і Четверта хвиля...
bohun 
VIP


З нами з: 21.03.09
Востаннє: 08.12.16
Повідомлень: 271

2013-01-12 20:14  
Ей, перевірте цю роздачу хто-небудь!!
Ваш часовий пояс: GMT + 2 Години

Нова тема   Відповісти