Завантажити та скачати торренти українською


Індіана Джонс. Тетралогія / Indiana Jones. The Complete Adventures (1981-2008) 720p Ukr/Eng

Нові коментарі

Нова тема   Відповісти
Автор Повідомлення
DеLight 
Відео Гуртом - фільмокрай
Відео Гуртом - фільмокрай


З нами з: 24.08.11
Востаннє: 17.11.16
Повідомлень: 664

2013-01-07 18:54  
Індіана Джонс. Тетралогія / Indiana Jones. The Complete Adventures (1981-2008) 720p Ukr/Eng

Індіана Джонс. Тетралогія / Indiana Jones. The Complete Adventures (1981-2008) 720p Ukr/Eng



Індіана Джонс: У Пошуках Втраченого Ковчега / Raiders of the Lost Ark (1981) 720p Ukr/Eng | sub Eng
Індіана Джонс: У Пошуках Втраченого Ковчега / Raiders of the Lost Ark (1981) Ukr/Eng | sub Eng

Індіана Джонс. Тетралогія / Indiana Jones. The Complete Adventures (1981-2008) 720p Ukr/Eng


Жанр: бойовик, пригодницький, комедія
Країна: США



Кіностудія / кінокомпанія: Paramount Pictures, Lucasfilm Ltd.
Режисер: Стівен Спілберґ
Актори: Гаррісон Форд, Карен Аллен, Пол Фріман, Джон Ріс-Девіс, Денхолм Елліотт

Сюжет:
Відомий археолог і фахівець з окультних наук доктор Джонс отримує небезпечне завдання від уряду США. Він повинен відправитися на пошуки унікальної реліквії - святого Ковчега. Але Індіана і не підозрює, що аналогічний наказ вже отримали таємні агенти Адольфа Гітлера...


Тривалість: 01:55:19
Якість: 720p

Відео:
кодек:
розмір кадру: 1280 x 544
бітрейт: 4 981 кб/с

Аудіо #1:
мова: українська
переклад: професійний дубльований
кодек: 2.0
бітрейт: 192 кб/с

Джерело озвучення:
на замовлення

Аудіо #2:
мова: англійська
переклад: оригінал
кодек: 5.1
бітрейт: 1536 кб/с

Субтитри #1-2:
мова: англійська
тип: програмні (м'які)
формат: *.srt


MediaInfo

Код:
General
Unique ID                      : 235713527282472619082114731770038398778 (0xB154C6281406807986D7BFE8F07F2F3A)
Complete name                  : D:\Torrents\Indiana Jones. The Complete Adventures (1981-2008) 720p [Ukr, Eng] [Hurtom]\Raiders of the Lost Ark (1981) 720p [Ukr, Eng] [Hurtom].mkv
Format                         : Matroska
Format version                 : Version 4 / Version 2
File size                      : 5.38 GiB
Duration                       : 1h 55mn
Overall bit rate               : 6 685 Kbps
Movie name                     : Raiders of the Lost Ark (1981) 720p [Ukr, Eng] [Hurtom] by Delight
Encoded date                   : UTC 2010-02-22 21:41:31
Writing application            : mkvmerge v5.9.0 ('On The Loose') built on Dec  9 2012 15:37:01
Writing library                : libebml v1.3.0 + libmatroska v1.4.0

Video
ID                             : 1
Format                         : AVC
Format/Info                    : Advanced Video Codec
Format profile                 : [email protected]
Format settings, CABAC         : Yes
Format settings, ReFrames      : 7 frames
Codec ID                       : V_MPEG4/ISO/AVC
Duration                       : 1h 55mn
Bit rate                       : 4 981 Kbps
Width                          : 1 280 pixels
Height                         : 544 pixels
Display aspect ratio           : 2.35:1
Frame rate mode                : Constant
Frame rate                     : 23.976 fps
Color space                    : YUV
Chroma subsampling             : 4:2:0
Bit depth                      : 8 bits
Scan type                      : Progressive
Bits/(Pixel*Frame)             : 0.298
Stream size                    : 3.91 GiB (73%)
Title                          : Raiders of the Lost Ark (1981) 720p
Writing library                : core 119 r2106 07efeb4
Encoding settings              : cabac=1 / ref=7 / deblock=1:-1:-1 / analyse=0x1:0x131 / me=umh / subme=10 / psy=1 / psy_rd=1.00:0.10 / mixed_ref=1 / me_range=24 / chroma_me=1 / trellis=2 / 8x8dct=0 / cqm=0 / deadzone=21,11 / fast_pskip=1 / chroma_qp_offset=-3 / threads=6 / sliced_threads=0 / nr=0 / decimate=1 / interlaced=0 / bluray_compat=0 / constrained_intra=0 / bframes=7 / b_pyramid=2 / b_adapt=2 / b_bias=0 / direct=3 / weightb=1 / open_gop=0 / weightp=2 / keyint=250 / keyint_min=23 / scenecut=40 / intra_refresh=0 / rc_lookahead=60 / rc=2pass / mbtree=1 / bitrate=4981 / ratetol=1.0 / qcomp=0.60 / qpmin=0 / qpmax=69 / qpstep=4 / cplxblur=20.0 / qblur=0.5 / ip_ratio=1.40 / aq=1:1.00
Language                       : English
Default                        : Yes
Forced                         : No

Audio #1
ID                             : 2
Format                         : AC-3
Format/Info                    : Audio Coding 3
Mode extension                 : CM (complete main)
Format settings, Endianness    : Big
Codec ID                       : A_AC3
Duration                       : 1h 55mn
Bit rate mode                  : Constant
Bit rate                       : 192 Kbps
Channel(s)                     : 2 channels
Channel positions              : Front: L R
Sampling rate                  : 48.0 KHz
Bit depth                      : 16 bits
Compression mode               : Lossy
Stream size                    : 158 MiB (3%)
Title                          : 2.0; 192 kbps; професійний дубльований {Студія ТВ+}
Language                       : Ukrainian
Default                        : Yes
Forced                         : No

Audio #2
ID                             : 3
Format                         :
Format/Info                    : Digital Theater Systems
Mode                           : 16
Format settings, Endianness    : Big
Codec ID                       : A_DTS
Duration                       : 1h 55mn
Bit rate mode                  : Constant
Bit rate                       : 1 509 Kbps
Channel(s)                     : 6 channels
Channel positions              : Front: L C R, Side: L R, LFE
Sampling rate                  : 48.0 KHz
Bit depth                      : 24 bits
Compression mode               : Lossy
Stream size                    : 1.22 GiB (23%)
Title                          : 5.1; 1536 kbps; original
Language                       : English
Default                        : No
Forced                         : No

Text #1
ID                             : 4
Format                         : UTF-8
Codec ID                       : S_TEXT/UTF8
Codec ID/Info                  : UTF-8 Plain Text
Title                          : full
Language                       : English
Default                        : No
Forced                         : No

Text #2
ID                             : 5
Format                         : UTF-8
Codec ID                       : S_TEXT/UTF8
Codec ID/Info                  : UTF-8 Plain Text
Title                          : SDH
Language                       : English
Default                        : No
Forced                         : No

Світлини











Індіана Джонс і Храм Долі / Indiana Jones and the Temple of Doom (1984) 720p 2хUkr/Eng | sub Eng
Індіана Джонс і Храм Долі / Indiana Jones and the Temple of Doom (1984) 2хUkr/Eng | sub Eng

Індіана Джонс. Тетралогія / Indiana Jones. The Complete Adventures (1981-2008) 720p Ukr/Eng


Жанр: бойовик, пригодницький, комедія
Країна: США



Кіностудія / кінокомпанія: Paramount Pictures, Lucasfilm Ltd.
Режисер: Стівен Спілберґ
Актори: Гаррісон Форд, Кейт Кепшоу, Джонатан Ке Квон, Амріш Пурі, Розан Сет

Сюжет:
Друга частина неймовірних пригод прославленого археолога і шукача пригод Індіани Джонса. На цей раз безстрашний доктор Джонс відправиться у подорож в серце Гімалаїв разом з ресторанною співачкою Уіллі Скотт і своїм вірним маленьким помічником Коротуном.

Тут, серед величних гір, археологові і його супутникам належить зіткнутися з кривавим культом, який поклоняється древній Богині Смерті – Калі. Чи стане Індіана наступним нещасним, загиблим на страшному вівтарі людських жертвопринесень, або йому, як завжди, вдасться вирватися з лап страху і розібратися з лиходіями.


Тривалість: 01:58:28
Якість: 720p

Відео:
кодек:
розмір кадру: 1280 x 544
бітрейт: 4 836 кб/с

Аудіо #1:
мова: українська
переклад: професійний дубльований
кодек: 2.0
бітрейт: 192 кб/с

Джерело озвучення:
на замовлення

Аудіо #2:
мова: українська
переклад: двоголосий закадровий
кодек: 2.0
бітрейт: 192 кб/с

Джерело озвучення:


Аудіо #3:
мова: англійська
переклад: оригінал
кодек: 5.1
бітрейт: 1536 кб/с

Субтитри #1-2:
мова: англійська
тип: програмні (м'які)
формат: *.srt


MediaInfo

Код:
General
Unique ID                      : 213431630869067763670224027688390091664 (0xA0916FD87B9329C68A6B0C7DABEFE390)
Complete name                  : D:\Torrents\Indiana Jones. The Complete Adventures (1981-2008) 720p [Ukr, Eng] [Hurtom]\Indiana Jones and the Temple of Doom (1984) 720p [2xUkr, Eng] [Hurtom].mkv
Format                         : Matroska
Format version                 : Version 4 / Version 2
File size                      : 5.57 GiB
Duration                       : 1h 58mn
Overall bit rate               : 6 731 Kbps
Movie name                     : Indiana Jones and the Temple of Doom (1984) 720p [2xUkr, Eng] [Hurtom] by Delight
Encoded date                   : UTC 2010-02-22 21:41:31
Writing application            : mkvmerge v5.9.0 ('On The Loose') built on Dec  9 2012 15:37:01
Writing library                : libebml v1.3.0 + libmatroska v1.4.0

Video
ID                             : 1
Format                         : AVC
Format/Info                    : Advanced Video Codec
Format profile                 : [email protected]
Format settings, CABAC         : Yes
Format settings, ReFrames      : 7 frames
Codec ID                       : V_MPEG4/ISO/AVC
Duration                       : 1h 58mn
Bit rate                       : 4 836 Kbps
Width                          : 1 280 pixels
Height                         : 544 pixels
Display aspect ratio           : 2.35:1
Frame rate mode                : Constant
Frame rate                     : 23.976 fps
Color space                    : YUV
Chroma subsampling             : 4:2:0
Bit depth                      : 8 bits
Scan type                      : Progressive
Bits/(Pixel*Frame)             : 0.290
Stream size                    : 3.89 GiB (70%)
Title                          : Indiana Jones and the Temple of Doom (1984) 720p
Writing library                : core 119 r2106 07efeb4
Encoding settings              : cabac=1 / ref=7 / deblock=1:-1:-1 / analyse=0x1:0x131 / me=umh / subme=10 / psy=1 / psy_rd=1.00:0.10 / mixed_ref=1 / me_range=24 / chroma_me=1 / trellis=2 / 8x8dct=0 / cqm=0 / deadzone=21,11 / fast_pskip=1 / chroma_qp_offset=-3 / threads=6 / sliced_threads=0 / nr=0 / decimate=1 / interlaced=0 / bluray_compat=0 / constrained_intra=0 / bframes=7 / b_pyramid=2 / b_adapt=2 / b_bias=0 / direct=3 / weightb=1 / open_gop=0 / weightp=2 / keyint=250 / keyint_min=23 / scenecut=40 / intra_refresh=0 / rc_lookahead=60 / rc=2pass / mbtree=1 / bitrate=4836 / ratetol=1.0 / qcomp=0.60 / qpmin=0 / qpmax=69 / qpstep=4 / cplxblur=20.0 / qblur=0.5 / ip_ratio=1.40 / aq=1:1.00
Language                       : English
Default                        : Yes
Forced                         : No

Audio #1
ID                             : 2
Format                         : AC-3
Format/Info                    : Audio Coding 3
Mode extension                 : CM (complete main)
Format settings, Endianness    : Big
Codec ID                       : A_AC3
Duration                       : 1h 58mn
Bit rate mode                  : Constant
Bit rate                       : 192 Kbps
Channel(s)                     : 2 channels
Channel positions              : Front: L R
Sampling rate                  : 48.0 KHz
Bit depth                      : 16 bits
Compression mode               : Lossy
Stream size                    : 163 MiB (3%)
Title                          : 2.0; 192 kbps; професійний дубльований {Студія ТВ+}
Language                       : Ukrainian
Default                        : Yes
Forced                         : No

Audio #2
ID                             : 3
Format                         : AC-3
Format/Info                    : Audio Coding 3
Mode extension                 : CM (complete main)
Format settings, Endianness    : Big
Codec ID                       : A_AC3
Duration                       : 1h 58mn
Bit rate mode                  : Constant
Bit rate                       : 192 Kbps
Channel(s)                     : 1 channel
Channel positions              : Front: C
Sampling rate                  : 48.0 KHz
Bit depth                      : 16 bits
Compression mode               : Lossy
Stream size                    : 163 MiB (3%)
Title                          : 2.0; 192 kbps; двоголосий закадровий {Новий канал}
Language                       : Ukrainian
Default                        : No
Forced                         : No

Audio #3
ID                             : 4
Format                         :
Format/Info                    : Digital Theater Systems
Mode                           : 16
Format settings, Endianness    : Big
Codec ID                       : A_DTS
Duration                       : 1h 58mn
Bit rate mode                  : Constant
Bit rate                       : 1 509 Kbps
Channel(s)                     : 6 channels
Channel positions              : Front: L C R, Side: L R, LFE
Sampling rate                  : 48.0 KHz
Bit depth                      : 24 bits
Compression mode               : Lossy
Stream size                    : 1.25 GiB (22%)
Title                          : 5.1; 1536 kbps; original
Language                       : English
Default                        : No
Forced                         : No

Text #1
ID                             : 5
Format                         : UTF-8
Codec ID                       : S_TEXT/UTF8
Codec ID/Info                  : UTF-8 Plain Text
Title                          : full
Language                       : English
Default                        : No
Forced                         : No

Text #2
ID                             : 6
Format                         : UTF-8
Codec ID                       : S_TEXT/UTF8
Codec ID/Info                  : UTF-8 Plain Text
Title                          : SDH
Language                       : English
Default                        : No
Forced                         : No

Світлини














Індіана Джонс і Останній Хрестовий Похід / Indiana Jones and the Last Crusade (1989) 720p 2хUkr/Eng | sub Eng
Індіана Джонс і Останній Хрестовий Похід / Indiana Jones and the Last Crusade (1989) 720p 2хUkr/Eng | sub Eng

Індіана Джонс. Тетралогія / Indiana Jones. The Complete Adventures (1981-2008) 720p Ukr/Eng


Жанр: бойовик, пригодницький, комедія
Країна: США



Кіностудія / кінокомпанія: Paramount Pictures, Lucasfilm Ltd.
Режисер: Стівен Спілберґ
Актори: Гаррісон Форд, Шон Коннері, Денхолм Елліотт, Елісон Дуді, Джон Ріс-Девіс

Сюжет:
Третя частина неймовірних пригод прославленого археолога і шукача пригод Індіани Джонса. Цього разу безстрашний Індіана розшукує найтаємничішу реліквію в історії людства - Святий Грааль. У цьому археологові допомагає його батько – професор Джонс старший.

Тепер під пильним оком свого батька і за допомогою своїх вірних талісманів, незмінного капелюха і батога, Індіані належить зробити багато благородних подвигів і приголомшливих відкриттів. У нових мандрах хороброму археологові доведеться добути чашу, яку тримав в руках Ісус Христос і отримати автограф... самого Адольфа Гітлера.


Тривалість: 02:06:53
Якість: 720p

Відео:
кодек:
розмір кадру: 1280 x 544
бітрейт: 4 485 кб/с

Аудіо #1:
мова: українська
переклад: професійний дубльований
кодек: 2.0
бітрейт: 192 кб/с

Джерело озвучення:
на замовлення

Аудіо #2:
мова: українська
переклад: двоголосий закадровий
кодек: 2.0
бітрейт: 192 кб/с

Джерело озвучення:


Аудіо #3:
мова: англійська
переклад: оригінал
кодек: 5.1
бітрейт: 1536 кб/с

Субтитри #1-2:
мова: англійська
тип: програмні (м'які)
формат: *.srt


MediaInfo

Код:
General
Unique ID                      : 234091600575313247285033942446325447123 (0xB01C66FEF39E4C2C804B9BEFB7BD39D3)
Complete name                  : D:\Torrents\Indiana Jones. The Complete Adventures (1981-2008) 720p [Ukr, Eng] [Hurtom]\Indiana Jones and the Last Crusade (1989) 720p [2xUkr, Eng] [Hurtom].mkv
Format                         : Matroska
Format version                 : Version 4 / Version 2
File size                      : 5.66 GiB
Duration                       : 2h 6mn
Overall bit rate               : 6 381 Kbps
Movie name                     : Indiana Jones and the Last Crusade (1989) 720p [2xUkr, Eng] [Hurtom] by Delight
Encoded date                   : UTC 2010-02-22 21:41:31
Writing application            : mkvmerge v5.9.0 ('On The Loose') built on Dec  9 2012 15:37:01
Writing library                : libebml v1.3.0 + libmatroska v1.4.0

Video
ID                             : 1
Format                         : AVC
Format/Info                    : Advanced Video Codec
Format profile                 : [email protected]
Format settings, CABAC         : Yes
Format settings, ReFrames      : 7 frames
Codec ID                       : V_MPEG4/ISO/AVC
Duration                       : 2h 6mn
Bit rate                       : 4 485 Kbps
Width                          : 1 280 pixels
Height                         : 544 pixels
Display aspect ratio           : 2.35:1
Frame rate mode                : Constant
Frame rate                     : 23.976 fps
Color space                    : YUV
Chroma subsampling             : 4:2:0
Bit depth                      : 8 bits
Scan type                      : Progressive
Bits/(Pixel*Frame)             : 0.269
Stream size                    : 3.87 GiB (68%)
Title                          : Indiana Jones and the Last Crusade (1989) 720p
Writing library                : core 119 r2106 07efeb4
Encoding settings              : cabac=1 / ref=7 / deblock=1:-1:-1 / analyse=0x1:0x131 / me=umh / subme=10 / psy=1 / psy_rd=1.00:0.10 / mixed_ref=1 / me_range=24 / chroma_me=1 / trellis=2 / 8x8dct=0 / cqm=0 / deadzone=21,11 / fast_pskip=1 / chroma_qp_offset=-3 / threads=6 / sliced_threads=0 / nr=0 / decimate=1 / interlaced=0 / bluray_compat=0 / constrained_intra=0 / bframes=7 / b_pyramid=2 / b_adapt=2 / b_bias=0 / direct=3 / weightb=1 / open_gop=0 / weightp=2 / keyint=250 / keyint_min=23 / scenecut=40 / intra_refresh=0 / rc_lookahead=60 / rc=2pass / mbtree=1 / bitrate=4485 / ratetol=1.0 / qcomp=0.60 / qpmin=0 / qpmax=69 / qpstep=4 / cplxblur=20.0 / qblur=0.5 / ip_ratio=1.40 / aq=1:1.00
Language                       : English
Default                        : Yes
Forced                         : No

Audio #1
ID                             : 2
Format                         : AC-3
Format/Info                    : Audio Coding 3
Mode extension                 : CM (complete main)
Format settings, Endianness    : Big
Codec ID                       : A_AC3
Duration                       : 2h 6mn
Bit rate mode                  : Constant
Bit rate                       : 192 Kbps
Channel(s)                     : 2 channels
Channel positions              : Front: L R
Sampling rate                  : 48.0 KHz
Bit depth                      : 16 bits
Compression mode               : Lossy
Stream size                    : 174 MiB (3%)
Title                          : 2.0; 192 kbps; професійний дубльований {Студія ТВ+}
Language                       : Ukrainian
Default                        : Yes
Forced                         : No

Audio #2
ID                             : 3
Format                         : AC-3
Format/Info                    : Audio Coding 3
Mode extension                 : CM (complete main)
Format settings, Endianness    : Big
Codec ID                       : A_AC3
Duration                       : 2h 6mn
Bit rate mode                  : Constant
Bit rate                       : 192 Kbps
Channel(s)                     : 2 channels
Channel positions              : Front: L R
Sampling rate                  : 48.0 KHz
Bit depth                      : 16 bits
Compression mode               : Lossy
Stream size                    : 174 MiB (3%)
Title                          : 2.0; 192 kbps; двоголосий закадровий {Новий канал}
Language                       : Ukrainian
Default                        : No
Forced                         : No

Audio #3
ID                             : 4
Format                         :
Format/Info                    : Digital Theater Systems
Mode                           : 16
Format settings, Endianness    : Big
Codec ID                       : A_DTS
Duration                       : 2h 6mn
Bit rate mode                  : Constant
Bit rate                       : 1 509 Kbps
Channel(s)                     : 6 channels
Channel positions              : Front: L C R, Side: L R, LFE
Sampling rate                  : 48.0 KHz
Bit depth                      : 24 bits
Compression mode               : Lossy
Stream size                    : 1.34 GiB (24%)
Title                          : 5.1; 1536 kbps; original
Language                       : English
Default                        : No
Forced                         : No

Text #1
ID                             : 5
Format                         : UTF-8
Codec ID                       : S_TEXT/UTF8
Codec ID/Info                  : UTF-8 Plain Text
Title                          : full
Language                       : English
Default                        : No
Forced                         : No

Text #2
ID                             : 6
Format                         : UTF-8
Codec ID                       : S_TEXT/UTF8
Codec ID/Info                  : UTF-8 Plain Text
Title                          : SDH
Language                       : English
Default                        : No
Forced                         : No

Світлини











Індіана Джонс і Королівство Кришталевого Черепа / Indiana Jones and the Kingdom of the Crystal Skull (2008) 720p 2хUkr/Eng | sub Ukr/Eng
Індіана Джонс і Королівство Кришталевого Черепа / Indiana Jones and the Kingdom of the Crystal Skull (2008) 2хUkr/Eng | sub Ukr/Eng

Індіана Джонс. Тетралогія / Indiana Jones. The Complete Adventures (1981-2008) 720p Ukr/Eng


Жанр: пригодницький, комедія
Країна: США



Кіностудія / кінокомпанія: Paramount Pictures
Режисер: Стівен Спілберґ
Актори: Гаррісон Форд, Шиа ЛаБеф, Карен Аллен, Кейт Бланшет, Джим Броадбент, Джон Гарт

Сюжет:
1957 рік, розпал холодної війни. Радянські солдати, очолювані агентом Іриною Спалько, викрадають Меріон - давню кохану Індіани Джонса, ставлячи професора перед вибором: бездіяльність і смерть Меріон або допомога радянській розвідці у пошуках легендарного Кришталевого черепа в обмін на свободу жінки. У нових мандрах його супроводжує юний помічник, син Індіани та Меріон ...


Тривалість: 02:02:33
Якість: 720p

Відео:
кодек:
розмір кадру: 1280 x 534
бітрейт: 6,4 Mб/с

Аудіо # 1:
мова: українська
переклад: професійний дубльований
кодек: 5.1
бітрейт: 448 кб/с

Джерело озвучення:


Аудіо # 2:
мова: українська
переклад: двоголосий закадровий
кодек: 2.0
бітрейт: 192 кб/с

Джерело озвучення:


Аудіо #3:
мова: англійська
переклад: оригінал
кодек: 5.1
бітрейт: 1536 кб/с

Субтитри #1-3:
мова: українська, англійська
тип: програмні (м'які)
формат: *.srt
джерело:


MediaInfo

Код:
General
Unique ID                      : 190773880253764056579328208113351775561 (0x8F85B67DE98280C7BE0D5CD256E7D549)
Complete name                  : D:\Torrents\Indiana Jones. The Complete Adventures (1981-2008) 720p [Ukr, Eng] [Hurtom]\Indiana Jones and the Kingdom of the Crystal Skull (2008) 720p [2xUkr, Eng] [Hurtom].mkv
Format                         : Matroska
Format version                 : Version 4 / Version 2
File size                      : 7.31 GiB
Duration                       : 2h 2mn
Overall bit rate               : 8 544 Kbps
Movie name                     : Indiana Jones and the Kingdom of the Crystal Skull (2008) 720p [2xUkr, Eng] [Hurtom] by Delight
Encoded date                   : UTC 2010-02-22 21:41:31
Writing application            : mkvmerge v5.9.0 ('On The Loose') built on Dec  9 2012 15:37:01
Writing library                : libebml v1.3.0 + libmatroska v1.4.0

Video
ID                             : 1
Format                         : AVC
Format/Info                    : Advanced Video Codec
Format profile                 : [email protected]
Format settings, CABAC         : Yes
Format settings, ReFrames      : 11 frames
Codec ID                       : V_MPEG4/ISO/AVC
Duration                       : 2h 2mn
Bit rate                       : 6 400 Kbps
Width                          : 1 280 pixels
Height                         : 534 pixels
Display aspect ratio           : 2.40:1
Frame rate mode                : Constant
Frame rate                     : 23.976 fps
Color space                    : YUV
Chroma subsampling             : 4:2:0
Bit depth                      : 8 bits
Scan type                      : Progressive
Bits/(Pixel*Frame)             : 0.391
Stream size                    : 5.33 GiB (73%)
Title                          : Indiana Jones and the Kingdom of the Crystal Skull (2008) 720p
Writing library                : core 128 r2216 198a7ea
Encoding settings              : cabac=1 / ref=11 / deblock=1:-3:-3 / analyse=0x3:0x113 / me=umh / subme=11 / psy=1 / psy_rd=1.00:0.10 / mixed_ref=1 / me_range=48 / chroma_me=1 / trellis=2 / 8x8dct=1 / cqm=0 / deadzone=21,11 / fast_pskip=0 / chroma_qp_offset=-3 / threads=18 / lookahead_threads=3 / sliced_threads=0 / nr=0 / decimate=0 / interlaced=0 / bluray_compat=0 / constrained_intra=0 / bframes=11 / b_pyramid=2 / b_adapt=2 / b_bias=0 / direct=3 / weightb=1 / open_gop=0 / weightp=2 / keyint=240 / keyint_min=22 / scenecut=40 / intra_refresh=0 / rc_lookahead=40 / rc=2pass / mbtree=0 / bitrate=6400 / ratetol=1.0 / qcomp=0.60 / qpmin=0 / qpmax=69 / qpstep=4 / cplxblur=20.0 / qblur=0.5 / vbv_maxrate=40000 / vbv_bufsize=30000 / nal_hrd=none / ip_ratio=1.40 / pb_ratio=1.30 / aq=1:1.00
Language                       : English
Default                        : Yes
Forced                         : No
Color primaries                : BT.709
Transfer characteristics       : BT.709
Matrix coefficients            : BT.709

Audio #1
ID                             : 2
Format                         : AC-3
Format/Info                    : Audio Coding 3
Mode extension                 : CM (complete main)
Format settings, Endianness    : Big
Codec ID                       : A_AC3
Duration                       : 2h 2mn
Bit rate mode                  : Constant
Bit rate                       : 448 Kbps
Channel(s)                     : 6 channels
Channel positions              : Front: L C R, Side: L R, LFE
Sampling rate                  : 48.0 KHz
Bit depth                      : 16 bits
Compression mode               : Lossy
Stream size                    : 393 MiB (5%)
Title                          : 5.1; 448 kbps; професійний дубльований  {Postmodern}
Language                       : Ukrainian
Default                        : Yes
Forced                         : No

Audio #2
ID                             : 3
Format                         : AC-3
Format/Info                    : Audio Coding 3
Mode extension                 : CM (complete main)
Format settings, Endianness    : Big
Codec ID                       : A_AC3
Duration                       : 2h 2mn
Bit rate mode                  : Constant
Bit rate                       : 192 Kbps
Channel(s)                     : 2 channels
Channel positions              : Front: L R
Sampling rate                  : 48.0 KHz
Bit depth                      : 16 bits
Compression mode               : Lossy
Stream size                    : 168 MiB (2%)
Title                          : 2.0; 192 kbps; двоголосий закадровий {Новий канал}
Language                       : Ukrainian
Default                        : No
Forced                         : No

Audio #3
ID                             : 4
Format                         :
Format/Info                    : Digital Theater Systems
Mode                           : 16
Format settings, Endianness    : Big
Codec ID                       : A_DTS
Duration                       : 2h 2mn
Bit rate mode                  : Constant
Bit rate                       : 1 510 Kbps
Channel(s)                     : 6 channels
Channel positions              : Front: L C R, Side: L R, LFE
Sampling rate                  : 48.0 KHz
Bit depth                      : 24 bits
Compression mode               : Lossy
Stream size                    : 1.29 GiB (18%)
Title                          : 5.1; 1536 kbps; original
Language                       : English
Default                        : No
Forced                         : No

Text #1
ID                             : 5
Format                         : UTF-8
Codec ID                       : S_TEXT/UTF8
Codec ID/Info                  : UTF-8 Plain Text
Title                          : full
Language                       : Ukrainian
Default                        : No
Forced                         : No

Text #2
ID                             : 6
Format                         : UTF-8
Codec ID                       : S_TEXT/UTF8
Codec ID/Info                  : UTF-8 Plain Text
Title                          : full
Language                       : English
Default                        : No
Forced                         : No

Text #3
ID                             : 7
Format                         : UTF-8
Codec ID                       : S_TEXT/UTF8
Codec ID/Info                  : UTF-8 Plain Text
Title                          : SDH
Language                       : English
Default                        : No
Forced                         : No

Світлини









Джерело: & &
За роботу над оформленням та наданий код оформлення подяка Gelios. Запис звуку з Нового каналу здійснював karvai0, синхронізація і зведення: urij546724, Vasua95, jonas93. Автор обкладинки до 4-ї частини: Chelios
Особиста оцінка: 10 - нестаріючий Індіана Джонс, із задоволенням ще раз переглянув, і вам раджу! Happy


Срібний реліз (на рейтинг впливає 50% завантаженого)
 Трекер:    Зареєстрований   

Завантажити / скачати фільм українською



відео для новачків



 Зареєстрований:   2013-01-07 18:54
 Розмір:   23.92 GB 
 Оцінка фільму:   9.8/10 (Голосів: 53)
   
Seriy100293 
VIP


З нами з: 17.08.11
Востаннє: 04.09.16
Повідомлень: 307

2013-01-07 20:42  
Дуже дякую! А у 720-mini буде? Або у AVC?
DеLight 
Відео Гуртом - фільмокрай
Відео Гуртом - фільмокрай


З нами з: 24.08.11
Востаннє: 17.11.16
Повідомлень: 664

2013-01-07 21:05  
Seriy100293
Розумію, що формат популярний, але щоб викладати його, потрібно щоб воно було якісне, а не будь що, з поганими (навіть дуже) налаштуваннями кодування. Хороших ріпів на таку тематику нажаль ще немає.
Раджу вантажити у 720p, така збірка варта таких жертв Happy

Seriy100293 
VIP


З нами з: 17.08.11
Востаннє: 04.09.16
Повідомлень: 307

2013-01-08 01:15  
Та я все розумію, але вінчестер теж не резиновий, і на рейтинг вплине...
Якби знав, що хтось цим займеться, то ще почекав би... І не я один, до речі.

Віктор 
Відео Гуртом - субтитрування
Відео Гуртом - субтитрування


З нами з: 09.01.10
Востаннє: 07.12.16
Повідомлень: 8663

2013-01-08 01:18  
Seriy100293 написано:
і на рейтинг вплине...

фріліч на тиждень - до 09.01.2013, 00:01.

Seriy100293 
VIP


З нами з: 17.08.11
Востаннє: 04.09.16
Повідомлень: 307

2013-01-08 15:33  
Віктор
Ні, не встигну. У мого інтернету швидкість невелика

DеLight 
Відео Гуртом - фільмокрай
Відео Гуртом - фільмокрай


З нами з: 24.08.11
Востаннє: 17.11.16
Повідомлень: 664

2013-01-08 16:38  
Seriy100293
Фріліч продовжено до кінця тижня http://www.hurtom.com/portal/

Seriy100293 
VIP


З нами з: 17.08.11
Востаннє: 04.09.16
Повідомлень: 307

2013-01-08 18:35  
Delight`
Оце добре)))

Seriy100293 
VIP


З нами з: 17.08.11
Востаннє: 04.09.16
Повідомлень: 307

2013-01-13 21:12  
А чому не зробили бонусних відео? Хоча б з субтитрами?
DеLight 
Відео Гуртом - фільмокрай
Відео Гуртом - фільмокрай


З нами з: 24.08.11
Востаннє: 17.11.16
Повідомлень: 664

2013-01-13 21:26  
Seriy100293
Там тривалість більше 5 год. про зйомки фільму, Ви б перекладали стільки, мені вистачає самих 4 частин.

HectorVK 
Свій


З нами з: 03.07.08
Востаннє: 29.11.16
Повідомлень: 84

2013-09-19 20:34  
Нема такого слова, "квадрологія". Є http://sum.in.ua/s/tetraloghija
Shturynmarkiyan 
Свій


З нами з: 08.05.09
Востаннє: 12.10.16
Повідомлень: 96

2014-03-13 15:39  
Немає світлин!((
Wizard_Harry 
Свій


З нами з: 11.10.13
Востаннє: 07.12.16
Повідомлень: 111

2015-03-04 12:50  
Перші три цікаві, дякую)
Yaremuha 
Новенький


З нами з: 08.05.11
Востаннє: 06.12.16
Повідомлень: 3

2015-04-12 11:32  
Нажаль тільки в АС 3 - 2.0 три частини а не в 5.1. Але все одно, дякуємо за гарний дубляж !
Ваш часовий пояс: GMT + 2 Години

Нова тема   Відповісти