Завантажити та скачати торренти українською


May of Sorrow - May Of Sorrow (2010) [FLAC] | Metalcore

Нові коментарі

Нова тема   Відповісти
Останній раз роздавалося lesyall (2016-11-05)
Автор Повідомлення
Q-L.Sove 
Новенький


З нами з: 12.12.10
Востаннє: 04.12.16
Повідомлень: 12

2013-01-06 21:11  
May of Sorrow - May Of Sorrow (2010) [FLAC] | Metalcore

May of Sorrow - May Of Sorrow (2010) [FLAC] | Metalcore


Стиль: Metalcore
Країна, місто: Україна, Полтава
Сайти: Офіційний сайт
Видавець: MODA Music

Виконавці:
Ярослав Вербовий - вокал
Олескандр Чернявський - гітара
Олександр Граков - гітара
Микита Карчевський - ударні
Юрій Кузуб - бас-гітара, вокал.

Пісні:
    01. Intro
    02. To the end
    03. I`ll be waiting
    04. It`s my desire
    05. Empty promises
    06. Lost without
    07. Under your skin
    08. Open your eyes
    09. Before you go
    10. Long way home
    11. Why should I forget
    12. Time to say goodbye
    13. Track 13

Тривалість: 00:38:21
Мова: англійська
Аудіо-кодек: FLAC
Бітрейт: 1040 кб/с
Скани обкладинки: присутні
Джерело: ріп з власного CD
log

Exact Audio Copy V1.0 beta 3 from 29. August 2011

EAC extraction logfile from 5. December 2012, 13:32

May of Sorrow / May of Sorrow

Used drive : Optiarc DVD RW AD-7580S Adapter: 1 ID: 0

Read mode : Secure
Utilize accurate stream : Yes
Defeat audio cache : Yes
Make use of C2 pointers : No

Read offset correction : 6
Overread into Lead-In and Lead-Out : No
Fill up missing offset samples with silence : Yes
Delete leading and trailing silent blocks : No
Null samples used in CRC calculations : Yes
Used interface : Native Win32 interface for Win NT & 2000

Used output format : User Defined Encoder
Selected bitrate : 1024 kBit/s
Quality : High
Add ID3 tag : Yes
Command line compressor : C:\Program Files\Exact Audio Copy\FLAC\FLAC.EXE
Additional command line options : -V -8 -T "Date=%year%" -T "Genre=%genre%" %source%

TOC of the extracted CD

Track | Start | Length | Start sector | End sector
---------------------------------------------------------
1 | 0:00.00 | 0:50.13 | 0 | 3762
2 | 0:50.13 | 3:04.48 | 3763 | 17610
3 | 3:54.61 | 3:25.25 | 17611 | 33010
4 | 7:20.11 | 3:43.63 | 33011 | 49798
5 | 11:03.74 | 3:03.20 | 49799 | 63543
6 | 14:07.19 | 3:02.33 | 63544 | 77226
7 | 17:09.52 | 2:55.02 | 77227 | 90353
8 | 20:04.54 | 3:14.25 | 90354 | 104928
9 | 23:19.04 | 3:30.03 | 104929 | 120681
10 | 26:49.07 | 4:07.03 | 120682 | 139209
11 | 30:56.10 | 3:23.09 | 139210 | 154443
12 | 34:19.19 | 3:13.65 | 154444 | 168983
13 | 37:33.09 | 0:48.26 | 168984 | 172609

Range status and errors

Selected range

Filename C:\Users\qlsove\Documents\May of Sorrow - May of Sorrow (2010)\May of Sorrow - May of Sorrow.wav

Peak level 96.8 %
Extraction speed 1.7 X
Range quality 100.0 %
Test CRC DECBF4DD
Copy CRC DECBF4DD
Copy OK

No errors occurred

End of status report

==== Log checksum A8F35F2D486210F560B2AD5B4A77C62E6EAE183FEA9CDD3D9A95CE04F4785DFF ====
Якщо Ви справді бажаєте підтримати українське - після прослуховування, якщо музика вам сподобалась, придбайте ліцензійний диск.

Підтримаймо вітчизняних виконавців!


Срібний реліз (на рейтинг впливає 50% завантаженого)
 Трекер:    Зареєстрований   

Завантажити / скачати українську музику



відео для новачків



 Зареєстрований:   2013-01-06 21:11
 Розмір:   480 MB 
 Оцінка музики:   9.8/10 (Голосів: 5)
   
Gratix02 
Свій


З нами з: 08.01.12
Востаннє: 05.12.16
Повідомлень: 80

2013-10-07 20:32  
Офігенно дядьки рубають музяку. Любителям металу раджу вантажити цю штукенцію(альбом).
Ваш часовий пояс: GMT + 2 Години

Нова тема   Відповісти