Завантажити та скачати торренти українською


Without Limits - Without Limits (2012) [FLAC] Pop Rock

Нові коментарі

Нова тема   Відповісти
Автор Повідомлення
Q-L.Sove 
Новенький


З нами з: 12.12.10
Востаннє: 04.12.16
Повідомлень: 12

2013-01-06 15:52  
Without Limits - Without Limits (2012) [FLAC] Pop Rock

Without Limits - Without Limits (2012) [FLAC] Pop Rock


Стиль: Pop Rock
Країна, місто: Україна, Київ
Сайти: Офіційний сайт
Видавець: самовидання гурту

Виконавці:
Сергій Танчинець - фронтмен
Іван Зіменко - ударні
Андрій Радько - гітара
Ігор Рибар - гітара
Олександр Адаменко - бас-гітара

Пісні:
    01 - Беркут
    02 - Undeground
    03 - Не знаю як
    04 - Розкажи
    05 - Дзеркало
    06 - Відчуваю
    07 - Люби мене
    08 - Дахами
    09 - Гори ясно
    10 - Захопила
    11 - Руки в руках
    12 - Пташка
    13 - Трек #4
    14 - Мила моя
    15 - Моя любов
    16 - Розкажи (Live)

Тривалість: 00:55:54
Мова: українська, англійська (2)
Аудіо-кодек: FLAC
Бітрейт: 997 кб/с
Скани обкладинки: присутні
Джерело: ріп з власного CD

Про альбом: це по суті навіть не студійний альбом, а подарунковий диск промо-збірки пісень гурту своїм шанувальникам. На ньому представлені студійні записи різних пісень гурту, що накопичилися за період його існування. Він не видавався на ніякому лейблі, а розповсюджується гуртом на концертах, та розігрується у всяких конкурсах, в одному з яких я його і виграв (тому диск з автографами музикантів).
log

Exact Audio Copy V1.0 beta 3 from 29. August 2011

EAC extraction logfile from 6. January 2013, 1:27

Without Limits / Without Limits

Used drive : Optiarc DVD RW AD-7580S Adapter: 1 ID: 0

Read mode : Secure
Utilize accurate stream : Yes
Defeat audio cache : Yes
Make use of C2 pointers : No

Read offset correction : 6
Overread into Lead-In and Lead-Out : No
Fill up missing offset samples with silence : Yes
Delete leading and trailing silent blocks : No
Null samples used in CRC calculations : Yes
Used interface : Native Win32 interface for Win NT & 2000

Used output format : User Defined Encoder
Selected bitrate : 1024 kBit/s
Quality : High
Add ID3 tag : Yes
Command line compressor : C:\Program Files\Exact Audio Copy\FLAC\FLAC.EXE
Additional command line options : -V -8 -T "Date=%year%" -T "Genre=%genre%" %source%

TOC of the extracted CD

Track | Start | Length | Start sector | End sector
---------------------------------------------------------
1 | 0:00.00 | 3:12.46 | 0 | 14445
2 | 3:12.46 | 3:52.28 | 14446 | 31873
3 | 7:04.74 | 3:28.44 | 31874 | 47517
4 | 10:33.43 | 2:49.14 | 47518 | 60206
5 | 13:22.57 | 3:14.72 | 60207 | 74828
6 | 16:37.54 | 3:13.11 | 74829 | 89314
7 | 19:50.65 | 3:06.33 | 89315 | 103297
8 | 22:57.23 | 3:34.00 | 103298 | 119347
9 | 26:31.23 | 3:19.69 | 119348 | 134341
10 | 29:51.17 | 3:23.23 | 134342 | 149589
11 | 33:14.40 | 4:45.61 | 149590 | 171025
12 | 38:00.26 | 3:09.61 | 171026 | 185261
13 | 41:10.12 | 3:48.19 | 185262 | 202380
14 | 44:58.31 | 3:38.64 | 202381 | 218794
15 | 48:37.20 | 4:21.31 | 218795 | 238400
16 | 52:58.51 | 2:56.02 | 238401 | 251602

Range status and errors

Selected range

Filename F:\Without Limits - Without Limits (2012)\Without Limits - Without Limits.wav

Peak level 100.0 %
Extraction speed 1.9 X
Range quality 100.0 %
Copy CRC 13C32899
Copy OK

No errors occurred

End of status report

==== Log checksum 2B791EF5881F856053C9EFD268B4AE706C84A6918E662D6C5737A5FA13A6DD87 ====
Якщо Ви справді бажаєте підтримати українське - після прослуховування, якщо музика вам сподобалась, придбайте ліцензійний диск.

Підтримаймо вітчизняних виконавців!


Срібний реліз (на рейтинг впливає 50% завантаженого)
 Трекер:    Зареєстрований   

Завантажити / скачати українську музику



відео для новачків



 Зареєстрований:   2013-01-06 15:52
 Розмір:   472 MB 
 Оцінка музики:   10/10 (Голосів: 4)
   
kvantum 
Новенький


З нами з: 03.01.09
Востаннє: 20.11.16
Повідомлень: 14

2013-01-07 21:25  
Дякую!
От якби ще в mp3 та на доріжки порізано було... Хочу мед та й ложкою))

Q-L.Sove 
Новенький


З нами з: 12.12.10
Востаннє: 04.12.16
Повідомлень: 12

2013-01-07 21:46  
Ваш часовий пояс: GMT + 2 Години

Нова тема   Відповісти