Завантажити та скачати торренти українською


Гуслі - Радуйся земле (1994) [FLAC] | Chorus

Нові коментарі

Нова тема   Відповісти
Автор Повідомлення
bohun 
VIP


З нами з: 21.03.09
Востаннє: 08.12.16
Повідомлень: 271

2013-01-06 12:34  
Гуслі - Радуйся земле (1994) [FLAC] | Chorus

Гуслі - Радуйся земле (1994) [FLAC] | Chorus


Стиль: Christian Folk
Країна, місто: Канада, Манітоба
Сайти: Офіційний сайт
Видавець: Hoosli Ukrainian Folk Ensemble
Виконавці:

Перші тенори:
    Ken Bailey
    John Budyk
    Jim Dudych
    Cory Kohut
    Ivan Maluzynsky
    John Mayba
    Harry Szkwarek
    Bob Zaporozan

Другі тенори:
    Don Cilinsky
    Orest Deneka
    Joe Dudych
    Myron Halayda
    Julian Klymkiw
    Gary Lukie
    Joe Mushaluk
    Ted Perich
    Michael Ryczak
    Marc Storozuk

Баритони:
    Andy Bereznycky
    Dan Gusztak
    Ben Hewak
    Walter Hewak
    Mark Karpa
    Jim Keller
    Roman Kukura
    Leo Luch
    Mike Luczka
    Tim Lukie

Баси:
    Nestor Bohonos
    Don Bryk
    Bill Chabluk
    Tom Dudych
    Walter Dudych
    Alex Kryschuk
    Russ Luch
    Paul Mayba
    Merv Prosak
    Walter Saranchuk
    John Sirdar
    Greg Zubacz

Дириґент: William Solomon
Пісні:
    1. God Eternal / Бог Предвічний Arr. Y. Kyshakevych, Y. Stankovych, O. Koshetz, Wm. Solomon
    2. Angels In Heaven / Янголи в небі Arr. B. Antkiv, Soloist - J. Mayba
    3. Rejoice / Возвеселімся Arr. O. Nyzhankivsky
    4. On Christmas Eve / На Святий Вечір Arr. M. Hajvoronsky, Soloists - T. Dudych, I. Maluzynsky, A. Bereznycky
    5. Bells / Дзвони Arr. D. Kotko, Soloists - I. Maluzynsky, Accompaniment - Zoloti Struny
    6. Good Evening, Good Host / Добрий вечір тобі, пане господарю Arr. K. Stetsenko
    7. In Bethlehem / У Вифлиємі Arr. S. Liudkevych
    8. The Little Drummer Boy H. Onorati, K. Davis, H. Simeone. Arr. W. Bohonos
    9. Schedrivka / Щедрівка Arr. K. Stetsenko
    10. A New Joy Descended / Нова радість стала Halyts'ke Arr. S. Liudkevych
    11. God Is Born / Бог народився Arr. W. Bohonos
    12. Basil's Mother / Василева мати Arr. K. Stetsenko, Wm. Solomon, Soloist - J. Mayba
    13. Tidings Of Joy / По всьому світу Arr. K. Stetsenko
    14. In Bethlehem A Star Shines / Во Вифлиємі зоря сіяє Arr. K. L. Accompaniment - Zoloti Struny
    15. On The River Jordan / На Йорданській річці Arr. K. Stetsenko
    16. Christ Is Born / Христос Родився Arr. O. Nyzhankivsky. Soloists - J. Mayba, I. Maluzynsky, A. Bereznycky, P. Mayba
    17. Silent Night F. Gruber, J. Mohr. Arr. W. Bohonis
Звіт EAC
Exact Audio Copy V0.99 prebeta 5 from 4. May 2009

Звіт EAC про видобування, котре виконане 4. січня 2013, 20:45

Hoosli / Rejoice

Дисковод: Optiarc DVD RW AD-5280S Adapter: 2 ID: 1

Режим читання : Точний
Використати точний потік : Так
Вимкнути аудіо кеш : Так
Застосувати мітки C2 : Ні

Корекція зміщення при читанні : 48
Екстрачитання областей Lead-in і Lead-out : Ні
Заповнення пропущених семплів тишею : Так
Видалення блоків з тишею на початку і кінці : Ні
При вирахуванні CRC використовувались нульові семпли : Ні
Використаний інтерфейс : 'Рідний' Win32-інтерфейс для Win NT/2000

Застосований вихідний формат : Кодер Користувача
Обраний бітрейт : 768 kBit/s
Якість : Високий
Додати тег ID3 : Ні
Компресор командного рядка : C:\Program Files (x86)\Exact Audio Copy\FLAC\FLAC.EXE
Додаткові параметри командного рядка : -6 -V -T "ARTIST=%a" -T "TITLE=%t" -T "ALBUM=%g" -T "DATE=%y" -T "TRACKNUMBER=%n" -T "GENRE=%m" -T "COMMENT=%e" %s -o %d

TOC видобутого CD

Трек | Старт | Довжина | Початковий сектор | Кінцевий сектор
------------------------------------------------------------------
1 | 0:00.00 | 4:15.42 | 0 | 19166
2 | 4:15.42 | 3:38.03 | 19167 | 35519
3 | 7:53.45 | 1:52.40 | 35520 | 43959
4 | 9:46.10 | 3:36.30 | 43960 | 60189
5 | 13:22.40 | 4:37.57 | 60190 | 81021
6 | 18:00.22 | 2:51.35 | 81022 | 93881
7 | 20:51.57 | 2:35.70 | 93882 | 105576
8 | 23:27.52 | 2:24.25 | 105577 | 116401
9 | 25:52.02 | 1:34.03 | 116402 | 123454
10 | 27:26.05 | 3:55.47 | 123455 | 141126
11 | 31:21.52 | 3:46.30 | 141127 | 158106
12 | 35:08.07 | 2:38.30 | 158107 | 169986
13 | 37:46.37 | 3:02.72 | 169987 | 183708
14 | 40:49.34 | 3:18.61 | 183709 | 198619
15 | 44:08.20 | 3:31.27 | 198620 | 214471
16 | 47:39.47 | 3:12.10 | 214472 | 228881
17 | 50:51.57 | 4:11.70 | 228882 | 247776

Статус діапазону і помилки

Обраний діапазон

Ім'я файлу C:\Users\bohun\Desktop\hoosli\Hoosli - Rejoice.wav

Піковий рівень 100.0 %
Якість діапазону 99.9 %
CRC тесту 983DD42E
CRC копії 983DD42E
Копіювання... OK

Помилки не траплялися

Кінець звіту
Усереднена АЧХ
Тривалість: 00:55:03
Мова: українська (1-7, 9-16) англійська (8, 17)
Аудіо-кодек: FLAC
Бітрейт: 599 кбіт/с
Джерело: Власний диск
Текст з буклета: Український Народний Ансамбль "Гуслі" існує вже 25 років, пропагуючи свою любов до української хорової музики через виступи по різних місцевостях Північної Америки. Де б вони не виступали, "Гуслі" зачаровують своїх глядачів своїм динамічним і багатим співом. Через свої виступи, включно з концертовими, літургічними і розваговими програмами, й особливо з інсценізованим музичним представленням історично-козацького репертуару, "Гуслі" стали одним з найбільш популярних серед українсько-канадських хорових ансамблів. "Гуслі" з приємністю пропонують цей п'ятий свій запис - збірку українських традиційних колядок і щедрівок.


Срібний реліз (на рейтинг впливає 50% завантаженого)
 Трекер:    Зареєстрований   

Завантажити / скачати українську музику



відео для новачків



 Зареєстрований:   2013-01-06 12:34
 Розмір:   243 MB 
 Оцінка музики:   10/10 (Голосів: 6)
   
bohun 
VIP


З нами з: 21.03.09
Востаннє: 08.12.16
Повідомлень: 271

2013-01-06 12:36  
Перепрошую за погану якість картинок, диск потрапив до мене в руки тільки на декілька годин, діяти потрібно було швидко, а сканера під рукою не було... Довелось знімати на "мильничку". З Різдвом Христовим!
Ваш часовий пояс: GMT + 2 Години

Нова тема   Відповісти