Завантажити та скачати торренти українською


Ліло та Стіч 2: Велика проблема Стіча / Lilo & Stitch 2: Stitch Has a Glitch (2005) AVC

Нові коментарі

Нова тема   Відповісти
Останній раз роздавалося zcsrdi (2016-11-28)
Автор Повідомлення
Drool 
VIP


З нами з: 17.04.10
Востаннє: 02.12.16
Повідомлень: 1262

2013-01-05 23:38  
Ліло та Стіч 2: Велика проблема Стіча / Lilo & Stitch 2: Stitch Has a Glitch (2005) AVC


Жанр: мультфільм, фантастика, драма, комедія, сімейний
Країна: США



Кіностудія / кінокомпанія: DisneyToon Studios
Режисер: Майкл ЛеБаш, Ентоні Леондіс
Ролі озвучують: Кріс Сандерс, Дакота Феннінг, Тіа Каррере, Девід Огден Стаєрс, Кевін МакДоналд, Кунева Мук, Джейсон Скот Лі, Вільям Дж.Капарелла, Холлістон Колеман

Сюжет:
Життя Стіча було веселим і безтурботним. Він допомагає Ліло піти по стопах її матері в підготовці до великого танцювального конкурсу на острові. Життя здається ідеальним, поки Стіч не потрапляє в скрутне становище, і тоді все йде шкереберть. І ось прийшла пора Ліло, Нанні, Джамбо та усій їх великій сім'ї послідувати законам «Охани» і прийти на допомогу маленькому веселому другу.


Тривалість: 01:05:19
Якість: AVC (Джерело: DVD9)
Відео:
кодек:
розмір кадру: 720x574@1022x574 (анаморф)
бітрейт: 4340 кб/с

Аудіо:
мова: українська
переклад: професійний дубльований
кодек: 5.1
бітрейт: 448 кб/с
Джерело озвучення:
MediaInfo
General
Unique ID : 237027113697963232780346982016614931112 (0xB251C2F794455D15D8E0C8FE94781AA8)
Complete name : /mnt/disk_d/Video/Мультфильмы/Lilo.&.Stitch.2.Stitch.Has.a.Glitch.2005.Ukr.Dub.AVC.UAGet.mkv
Format : Matroska
File size : 2.19 GiB
Duration : 1h 5mn
Overall bit rate : 4 789 Kbps
Movie name : Ліло та Стіч 2: Велика проблема Стіча / Lilo & Stitch 2: Stitch Has a Glitch (2005) AVC -=UAGet=-
Encoded date : UTC 2013-01-05 20:36:13
Writing application : mkvmerge v4.8.0 ('I Got The...') built on Aug 22 2011 13:16:28
Writing library : libebml v1.2.0 + libmatroska v1.1.0

Video
ID : 1
Format : AVC
Format/Info : Advanced Video Codec
Format profile : [email protected]
Format settings, CABAC : Yes
Format settings, ReFrames : 8 frames
Codec ID : V_MPEG4/ISO/AVC
Duration : 1h 5mn
Bit rate : 4 340 Kbps
Width : 720 pixels
Height : 574 pixels
Display aspect ratio : 16:9
Original display aspect ratio : 16:9
Frame rate : 25.000 fps
Color space : YUV
Chroma subsampling : 4:2:0
Bit depth : 8 bits
Scan type : Progressive
Bits/(Pixel*Frame) : 0.420
Stream size : 1.94 GiB (89%)
Title : Ліло та Стіч 2: Велика проблема Стіча (2005) AVC -=UAGet=-
Writing library : core 128
Encoding settings : cabac=1 / ref=9 / deblock=1:-2:-1 / analyse=0x3:0x133 / me=umh / subme=11 / psy=1 / psy_rd=1,00:0,15 / mixed_ref=1 / me_range=32 / chroma_me=1 / trellis=2 / 8x8dct=1 / cqm=0 / deadzone=21,11 / fast_pskip=0 / chroma_qp_offset=-3 / threads=6 / lookahead_threads=1 / sliced_threads=0 / nr=0 / decimate=1 / interlaced=0 / bluray_compat=0 / constrained_intra=0 / bframes=9 / b_pyramid=1 / b_adapt=2 / b_bias=0 / direct=3 / weightb=1 / open_gop=0 / weightp=2 / keyint=250 / keyint_min=25 / scenecut=40 / intra_refresh=0 / rc=2pass / mbtree=0 / bitrate=4340 / ratetol=1,0 / qcomp=1,00 / qpmin=4 / qpmax=69 / qpstep=4 / cplxblur=20,0 / qblur=0,5 / ip_ratio=1,40 / pb_ratio=1,30 / aq=2:0,60
Color primaries : BT.470-6 System B, BT.470-6 System G, BT.601-6 625, BT.1358 625, BT.1700 625 PAL, BT.1700 625 SECAM
Transfer characteristics : BT.709-5, BT.1361
Matrix coefficients : BT.601-6 525, BT.1358 525, BT.1700 NTSC, SMPTE 170M

Audio
ID : 2
Format : AC-3
Format/Info : Audio Coding 3
Mode extension : CM (complete main)
Codec ID : A_AC3
Duration : 1h 5mn
Bit rate mode : Constant
Bit rate : 448 Kbps
Channel(s) : 6 channels
Channel positions : Front: L C R, Side: L R, LFE
Sampling rate : 48.0 KHz
Bit depth : 16 bits
Compression mode : Lossy
Delay relative to video : 191ms
Stream size : 209 MiB (9%)
Title : Рідна мова
Language : Ukrainian
Info
[info]: frame I:974 Avg QP: 8,92 size:107651 PSNR Mean Y:54,07 U:56,89 V:56,87 Avg:54,81 Global:54,54
[info]: frame P:24404 Avg QP:11,08 size: 47752 PSNR Mean Y:51,41 U:54,26 V:54,28 Avg:52,14 Global:51,86
[info]: frame B:72612 Avg QP:13,02 size: 11786 PSNR Mean Y:50,72 U:53,68 V:53,67 Avg:51,46 Global:51,09
[info]: consecutive B-frames: 2,8% 3,2% 16,0% 32,4% 17,4% 24,5% 1,8% 0,6% 0,4% 0,8%
[info]: mb I I16..4: 22,2% 49,5% 28,2%
[info]: mb P I16..4: 5,1% 13,5% 5,3% P16..4: 14,9% 10,9% 26,8% 10,3% 5,2% skip: 7,8%
[info]: mb B I16..4: 0,3% 2,2% 0,4% B16..8: 27,3% 12,2% 5,4% direct: 6,9% skip:45,3% L0:41,1% L1:40,1% BI:18,9%
[info]: 8x8 transform intra:60,3% inter:30,5%
[info]: direct mvs spatial:98,5% temporal:1,5%
[info]: coded y,uvDC,uvAC intra: 92,9% 91,1% 87,8% inter: 25,2% 25,3% 19,2%
[info]: i16 v,h,dc,p: 12% 8% 51% 29%
[info]: i8 v,h,dc,ddl,ddr,vr,hd,vl,hu: 19% 15% 37% 5% 4% 4% 3% 6% 7%
[info]: i4 v,h,dc,ddl,ddr,vr,hd,vl,hu: 16% 11% 13% 10% 11% 11% 9% 10% 10%
[info]: i8c dc,h,v,p: 56% 20% 17% 7%
[info]: Weighted P-Frames: Y:5,3% UV:3,9%
[info]: ref P L0: 65,7% 9,6% 10,3% 5,0% 3,4% 2,5% 2,2% 1,1% 0,1% 0,0%
[info]: ref B L0: 88,5% 7,2% 2,2% 0,9% 0,6% 0,4% 0,2%
[info]: ref B L1: 94,4% 5,6%
[info]: SSIM Mean Y:0,9943893 (22,510db)
[info]: PSNR Mean Y:50,924 U:53,853 V:53,854 Avg:51,660 Global:51,297 kb/s:4339,26
Скріншоти








Анаморфні скріншоти








Реліз від:
Особиста оцінка: 10 - без зайвих вагань рекомендую всім!


 Трекер:    Зареєстрований   

Завантажити / скачати мультфільм українською



відео для новачків



 Зареєстрований:   2013-01-05 23:38
 Розмір:   2.19 GB 
 Оцінка мультфільму:   9.7/10 (Голосів: 12)
   
Ігор Вінський 
VIP


З нами з: 17.03.11
Востаннє: 02.12.16
Повідомлень: 338

2013-01-06 00:03  
Де можна завантажити ДВД з укр. Киньте посилання у пп.
Drool 
VIP


З нами з: 17.04.10
Востаннє: 02.12.16
Повідомлень: 1262

2013-01-06 00:14  
вінськийігор написано:
Де можна завантажити ДВД з укр. Киньте посилання у пп.

Так, це я недогледів. Українську доріжку взято з роздачі MutuLI.

ingwar 
Модератор літератури


З нами з: 08.03.08
Востаннє: 02.12.16
Повідомлень: 1200

2013-01-06 20:04  
А що таке анаморфні скріншоти?
Drool 
VIP


З нами з: 17.04.10
Востаннє: 02.12.16
Повідомлень: 1262

2013-01-06 20:31  
ingwar написано:
А що таке анаморфні скріншоти?

Це коли в картинці кількість пікселів X-Y одна (в даному випадку 720x574), а при перегляді розтягується до іншого співвідношення сторін (в даному випадку 1022x574). Завдяки цьому можна досягти високого бітрейту при меншому розмірі. Зазвичай, анаморфну картинку мають DVD-диски.

Додано через 11 хвилин 41 секунду:


Wide grin Wide grin

Ваш часовий пояс: GMT + 2 Години

Нова тема   Відповісти