Завантажити та скачати торренти українською


Три метри над рівнем неба. Дилогія / Tres Metros Sobre El Cielo. Dilogy (2010-2012) 720р Ukr/Esp | Sub Ukr/Eng

Нові коментарі

Нова тема   Відповісти
Автор Повідомлення
pyatachok 
Координатор літератури


З нами з: 30.01.10
Востаннє: 02.12.16
Повідомлень: 1337

2013-01-03 20:45  
Три метри над рівнем неба. Дилогія / Tres Metros Sobre El Cielo. Dilogy (2010-2012) 720р Ukr/Esp | Sub Ukr/Eng


Три метри над рівнем неба / Tres Metros Sobre El Cielo (2010) 720р Ukr/Esp | Sub Ukr/Eng
Три метри над рівнем неба / Tres Metros Sobre El Cielo (2010) 720р Ukr/Esp | Sub Ukr/Eng


Жанр: Романтична драма
Країна: Іспанія



Кіностудія / кінокомпанія: 1.Antena 3 Films 2.Antena 3 Televisión 3.Canal+ España 4.Cangrejo Films 5.Cattleya 6.Globo Media S.A. 7.Institut Català de les Indústries Culturals 8.Instituto de Crédito Oficial (ICO) 9.Instituto de la Cinematografía y de las Artes Audiovisuales (ICAA) 10.La Sexta 11.Zeta Audiovisual
Режисер: Фернандо Гонзалез Моліна
Актори: Маріо Касас, Марія Вальверде, Альваро Сервантес, Маріна Салас, Луіс Фернандез, Андреа Дуро, Нереа Камачо, Діего Мартін, Крістіна Плазас, Джорді Бош...

Сюжет:
Історія двох молодих людей, які належать до різних світів. Бабі - багата дівчина, яка відображає доброту і невинність. Аче - бунтівний хлопчина, імпульсивний, несвідомий, схильний до ризику і небезпеки. Це малоймовірно, практично неможливо, але їхня зустріч неминуча, і в цій шаленій подорожі між ними виникає перша велика любов.


Тривалість: 02:02:46
Якість: 720р
Відео:
кодек:
розмір кадру: 1280 x 544
бітрейт: 4329 кб/с

Аудіо # 1:
мова: українська
переклад: багатоголосий закадровий
кодек: AС3 5.1
бітрейт: 384 кб/с

Аудіо # 2:
мова: іспанська
переклад: оригінал
кодек: 5.1
бітрейт: 384 кб/с

Джерело озвучення:


Субтитри:
мова: українська
тип: програмні (м'які)
формат: *.srt

Субтитри:
мова: англійська
тип: програмні (м'які)
формат: *.srt

Скріншоти
Original vs Encode
MediaInfo
Код:
General
Unique ID                                : 172935793586425860830813054270259946301 (0x821A38EAC77BB2C2BA2BC88F42AD633D)
Complete name                            : D:\Tres Metros Sobre El Cielo (2010) [Ukr, Spa] [sub. Ukr, Eng] 720р [Hurtom-pyatchok].mkv
Format                                   : Matroska
Format version                           : Version 4 / Version 2
File size                                : 4.37 GiB
Duration                                 : 2h 2mn
Overall bit rate                         : 5 096 Kbps
Movie name                               : Release for Hurtom
Encoded date                             : UTC 2010-02-22 21:41:31
Writing application                      : mkvmerge v5.9.0 ('On The Loose') built on Dec  9 2012 15:37:01
Writing library                          : libebml v1.3.0 + libmatroska v1.4.0

Video
ID                                       : 1
Format                                   : AVC
Format/Info                              : Advanced Video Codec
Format profile                           : [email protected]
Format settings, CABAC                   : Yes
Format settings, ReFrames                : 9 frames
Codec ID                                 : V_MPEG4/ISO/AVC
Duration                                 : 2h 2mn
Bit rate                                 : 4 329 Kbps
Width                                    : 1 280 pixels
Height                                   : 544 pixels
Display aspect ratio                     : 2.35:1
Frame rate mode                          : Constant
Frame rate                               : 24.000 fps
Color space                              : YUV
Chroma subsampling                       : 4:2:0
Bit depth                                : 8 bits
Scan type                                : Progressive
Bits/(Pixel*Frame)                       : 0.259
Stream size                              : 3.62 GiB (83%)
Title                                    : Tres Metros Sobre El Cielo (2010) 720р - Release for Hurtom by pyatachok
Writing library                          : core 129 r2230 1cffe9f
Encoding settings                        : cabac=1 / ref=9 / deblock=1:-3:-3 / analyse=0x3:0x133 / me=umh / subme=11 / psy=1 / psy_rd=1.00:0.15 / mixed_ref=1 / me_range=32 / chroma_me=1 / trellis=2 / 8x8dct=1 / cqm=0 / deadzone=21,11 / fast_pskip=0 / chroma_qp_offset=-3 / threads=6 / lookahead_threads=1 / sliced_threads=0 / nr=0 / decimate=1 / interlaced=0 / bluray_compat=0 / constrained_intra=0 / bframes=9 / b_pyramid=2 / b_adapt=2 / b_bias=0 / direct=3 / weightb=1 / open_gop=0 / weightp=2 / keyint=240 / keyint_min=24 / scenecut=40 / intra_refresh=0 / rc_lookahead=60 / rc=2pass / mbtree=1 / bitrate=4329 / ratetol=1.0 / qcomp=0.60 / qpmin=0 / qpmax=69 / qpstep=4 / cplxblur=20.0 / qblur=0.5 / ip_ratio=1.40 / aq=1:1.00
Default                                  : Yes
Forced                                   : No

Audio #1
ID                                       : 2
Format                                   : AC-3
Format/Info                              : Audio Coding 3
Mode extension                           : CM (complete main)
Format settings, Endianness              : Big
Codec ID                                 : A_AC3
Duration                                 : 2h 2mn
Bit rate mode                            : Constant
Bit rate                                 : 384 Kbps
Channel(s)                               : 6 channels
Channel positions                        : Front: L C R, Side: L R, LFE
Sampling rate                            : 48.0 KHz
Bit depth                                : 16 bits
Compression mode                         : Lossy
Stream size                              : 337 MiB (8%)
Title                                    : 5.1 - 384 kbps
Language                                 : Ukrainian
Default                                  : Yes
Forced                                   : No

Audio #2
ID                                       : 3
Format                                   : AC-3
Format/Info                              : Audio Coding 3
Mode extension                           : CM (complete main)
Format settings, Endianness              : Big
Codec ID                                 : A_AC3
Duration                                 : 2h 2mn
Bit rate mode                            : Constant
Bit rate                                 : 384 Kbps
Channel(s)                               : 6 channels
Channel positions                        : Front: L C R, Side: L R, LFE
Sampling rate                            : 48.0 KHz
Bit depth                                : 16 bits
Compression mode                         : Lossy
Stream size                              : 337 MiB (8%)
Title                                    : AC 5.1 - 384 kbps
Language                                 : Spanish
Default                                  : No
Forced                                   : No

Text #1
ID                                       : 4
Format                                   : UTF-8
Codec ID                                 : S_TEXT/UTF8
Codec ID/Info                            : UTF-8 Plain Text
Language                                 : Ukrainian
Default                                  : Yes
Forced                                   : No

Text #2
ID                                       : 5
Format                                   : UTF-8
Codec ID                                 : S_TEXT/UTF8
Codec ID/Info                            : UTF-8 Plain Text
Language                                 : English
Default                                  : No
Forced                                   : No
log
Код:
---[NoImage] [info]: frame I:1537  Avg QP:15.69  size:114903
---[NoImage] [info]: frame P:37732 Avg QP:19.19  size: 42540
---[NoImage] [info]: frame B:137511 Avg QP:21.39  size: 16010
---[NoImage] [info]: consecutive B-frames:  2.3%  2.4%  7.1% 18.2% 14.6% 46.5%  5.1%  0.6%  2.0%  1.2%
---[NoImage] [info]: mb I  I16..4: 15.6% 64.1% 20.3%
---[NoImage] [info]: mb P  I16..4:  2.5% 13.8%  1.7%  P16..4: 28.0% 34.0% 11.6%  2.3%  0.3%    skip: 5.9%
---[NoImage] [info]: mb B  I16..4:  0.3%  2.1%  0.2%  B16..8: 38.2% 21.3%  3.9%  direct: 5.4%  skip:28.7%  L0:44.6% L1:44.6% BI:10.8%
---[NoImage] [info]: 8x8 transform intra:76.5% inter:63.6%
---[NoImage] [info]: direct mvs  spatial:99.1% temporal:0.9%
---[NoImage] [info]: coded y,uvDC,uvAC intra: 83.2% 87.6% 76.5% inter: 30.0% 33.9% 14.6%
---[NoImage] [info]: i16 v,h,dc,p: 58%  8% 11% 22%
---[NoImage] [info]: i8 v,h,dc,ddl,ddr,vr,hd,vl,hu:  8%  7%  8% 10% 15% 14% 13% 12% 13%
---[NoImage] [info]: i4 v,h,dc,ddl,ddr,vr,hd,vl,hu: 10%  7%  6%  9% 15% 15% 13% 12% 13%
---[NoImage] [info]: i8c dc,h,v,p: 48% 17% 14% 20%
---[NoImage] [info]: Weighted P-Frames: Y:2.9% UV:1.9%
---[NoImage] [info]: ref P L0: 48.3%  5.7% 17.9%  8.8%  6.4%  4.8%  3.8%  2.3%  1.7%  0.2%  0.0%
---[NoImage] [info]: ref B L0: 73.0% 13.3%  6.0%  3.0%  2.1%  1.5%  0.8%  0.2%
---[NoImage] [info]: ref B L1: 93.3%  6.7%
---[NoImage] [info]: kb/s:4326.22
Подяки:
Пану igrik09 за надану українську доріжку.
Пану xfsthe за українські субтитри.
Пану НТН за створення якісної доріжки 5.1.


Джерело:
Три метри над рівнем неба 2: Я тебе хочу / Tengo ganas de ti (2012) 720р Ukr/Esp | Sub Ukr/Eng
Три метри над рівнем неба 2: Я тебе хочу / Tengo ganas de ti (2012) 720р Ukr/Esp | Sub Ukr/Eng


Жанр: драма, мелодрама
Країна: Іспанія



Кіностудія / кінокомпанія: Antena 3 Films
Режисер: Фернандо Гонсалес Моліна
Актори: Маріо Касас, Марія Вальверде, Клара Лаго, Альваро Сервантес, Лучо Фернандес, Марина Салас

Сюжет:
Провівши два роки в Лондоні, Аче повертається додому, щоб почати нове життя: влаштуватися на роботу, завести нових друзів. Однак багато що змінилося і зустріч з Джин змушує Аче відчути те, що він відчував тільки до Бабі - свого першого великого і справжнього кохання...


Тривалість: 02:03:33
Якість: 720р
Відео:
кодек:
розмір кадру: 1280 x 536
бітрейт: 4295 кб/с

Аудіо # 1:
мова: українська
переклад: багатоголосий закадровий
кодек: 5.1
бітрейт: 384 кб/с

Аудіо # 2:
мова: іспанська
кодек: 5.1
бітрейт: 384 кб/с

Джерело озвучення:


Субтитри:
мова: українська
тип: програмні (м'які)
формат: *.srt

Скріншоти
Original vs Encode
MediaInfo
Код:
General
Unique ID                                : 225097596010126914693984836060388367951 (0xA9583855A03EBD58B5E9E8841C659E4F)
Complete name                            : D:\Tengo ganas de ti (2012) [Ukr, Eng] [sub. Ukr] 720р [Hurtom-pyatachok].mkv
Format                                   : Matroska
Format version                           : Version 4 / Version 2
File size                                : 4.37 GiB
Duration                                 : 2h 3mn
Overall bit rate                         : 5 066 Kbps
Movie name                               :  Release for Hurtom
Encoded date                             : UTC 2010-02-22 21:41:31
Writing application                      : mkvmerge v5.9.0 ('On The Loose') built on Dec  9 2012 15:37:01
Writing library                          : libebml v1.3.0 + libmatroska v1.4.0

Video
ID                                       : 1
Format                                   : AVC
Format/Info                              : Advanced Video Codec
Format profile                           : [email protected]
Format settings, CABAC                   : Yes
Format settings, ReFrames                : 9 frames
Codec ID                                 : V_MPEG4/ISO/AVC
Bit rate                                 : 4 296 Kbps
Width                                    : 1 280 pixels
Height                                   : 536 pixels
Display aspect ratio                     : 2.40:1
Frame rate mode                          : Variable
Original frame rate                      : 23.976 fps
Color space                              : YUV
Chroma subsampling                       : 4:2:0
Bit depth                                : 8 bits
Scan type                                : Progressive
Bits/(Pixel*Frame)                       : 0.261
Title                                    : Tengo ganas de ti (2012) 720р - Release for Hurtom by pyatachok
Writing library                          : core 129 r2230 1cffe9f
Encoding settings                        : cabac=1 / ref=9 / deblock=1:-3:-3 / analyse=0x3:0x133 / me=umh / subme=11 / psy=1 / psy_rd=1.00:0.15 / mixed_ref=1 / me_range=32 / chroma_me=1 / trellis=2 / 8x8dct=1 / cqm=0 / deadzone=21,11 / fast_pskip=0 / chroma_qp_offset=-3 / threads=6 / lookahead_threads=1 / sliced_threads=0 / nr=0 / decimate=1 / interlaced=0 / bluray_compat=0 / constrained_intra=0 / bframes=9 / b_pyramid=2 / b_adapt=2 / b_bias=0 / direct=3 / weightb=1 / open_gop=0 / weightp=2 / keyint=240 / keyint_min=23 / scenecut=40 / intra_refresh=0 / rc_lookahead=60 / rc=2pass / mbtree=1 / bitrate=4296 / ratetol=1.0 / qcomp=0.60 / qpmin=0 / qpmax=69 / qpstep=4 / cplxblur=20.0 / qblur=0.5 / ip_ratio=1.40 / aq=1:1.00
Default                                  : Yes
Forced                                   : No

Audio #1
ID                                       : 2
Format                                   : AC-3
Format/Info                              : Audio Coding 3
Mode extension                           : CM (complete main)
Format settings, Endianness              : Big
Codec ID                                 : A_AC3
Duration                                 : 2h 3mn
Bit rate mode                            : Constant
Bit rate                                 : 384 Kbps
Channel(s)                               : 6 channels
Channel positions                        : Front: L C R, Side: L R, LFE
Sampling rate                            : 48.0 KHz
Bit depth                                : 16 bits
Compression mode                         : Lossy
Stream size                              : 339 MiB (8%)
Title                                    : Ukr 5.1 384 kbps
Language                                 : Ukrainian
Default                                  : Yes
Forced                                   : No

Audio #2
ID                                       : 3
Format                                   : AC-3
Format/Info                              : Audio Coding 3
Mode extension                           : CM (complete main)
Format settings, Endianness              : Big
Codec ID                                 : A_AC3
Duration                                 : 2h 3mn
Bit rate mode                            : Constant
Bit rate                                 : 384 Kbps
Channel(s)                               : 6 channels
Channel positions                        : Front: L C R, Side: L R, LFE
Sampling rate                            : 48.0 KHz
Bit depth                                : 16 bits
Compression mode                         : Lossy
Stream size                              : 339 MiB (8%)
Title                                    : Spa 5.1 384 kbps
Language                                 : Spanish
Default                                  : No
Forced                                   : No

Text #1
ID                                       : 4
Format                                   : UTF-8
Codec ID                                 : S_TEXT/UTF8
Codec ID/Info                            : UTF-8 Plain Text
Language                                 : Ukrainian
Default                                  : Yes
Forced                                   : No

Text #2
ID                                       : 5
Format                                   : UTF-8
Codec ID                                 : S_TEXT/UTF8
Codec ID/Info                            : UTF-8 Plain Text
Language                                 : English
Default                                  : No
Forced                                   : No

log
Код:
---[NoImage] [info]: frame I:1603  Avg QP:16.25  size:116683
---[NoImage] [info]: frame P:36230 Avg QP:19.72  size: 45657
---[NoImage] [info]: frame B:139921 Avg QP:21.89  size: 15292
---[NoImage] [info]: consecutive B-frames:  1.9%  1.9%  4.9% 18.1% 16.2% 44.7%  7.0%  0.9%  2.9%  1.5%
---[NoImage] [info]: mb I  I16..4: 14.1% 61.7% 24.2%
---[NoImage] [info]: mb P  I16..4:  2.0% 14.1%  1.9%  P16..4: 27.8% 34.7% 12.6%  2.6%  0.3%    skip: 3.9%
---[NoImage] [info]: mb B  I16..4:  0.4%  1.8%  0.1%  B16..8: 38.9% 21.5%  3.9%  direct: 6.0%  skip:27.4%  L0:44.2% L1:44.1% BI:11.7%
---[NoImage] [info]: 8x8 transform intra:75.8% inter:60.4%
---[NoImage] [info]: direct mvs  spatial:99.4% temporal:0.6%
---[NoImage] [info]: coded y,uvDC,uvAC intra: 82.6% 86.1% 68.3% inter: 32.4% 27.7% 7.0%
---[NoImage] [info]: i16 v,h,dc,p: 63%  9%  8% 19%
---[NoImage] [info]: i8 v,h,dc,ddl,ddr,vr,hd,vl,hu: 11%  7%  9% 10% 14% 13% 13% 11% 12%
---[NoImage] [info]: i4 v,h,dc,ddl,ddr,vr,hd,vl,hu: 14%  9%  7%  8% 14% 13% 12% 11% 12%
---[NoImage] [info]: i8c dc,h,v,p: 42% 21% 18% 19%
---[NoImage] [info]: Weighted P-Frames: Y:2.8% UV:1.8%
---[NoImage] [info]: ref P L0: 47.0%  6.0% 18.1%  9.1%  6.6%  5.0%  3.9%  2.4%  1.8%  0.1%  0.0%
---[NoImage] [info]: ref B L0: 73.8% 13.0%  5.8%  3.0%  2.0%  1.5%  0.8%  0.2%
---[NoImage] [info]: ref B L1: 93.5%  6.5%
---[NoImage] [info]: kb/s:4295.55
Джерело:


За наданий код оформлення подяка Vasua95



Джерело:


Бронзовий реліз (на рейтинг впливає 75% завантаженого)
 Трекер:    Зареєстрований   

Завантажити / скачати фільм українською



відео для новачків



 Зареєстрований:   2013-01-16 22:32
 Розмір:   8.74 GB 
 Оцінка фільму:   9/10 (Голосів: 22)
   
bot 
робот


З нами з: 30.09.07
Востаннє: 26.05.05
Повідомлень: 15965

2013-01-03 20:45  
Тему перенесено з Фільми в HD до форуму Анонси релізів від Відео Гуртом


pyatachok

pyatachok 
Координатор літератури


З нами з: 30.01.10
Востаннє: 02.12.16
Повідомлень: 1337

2013-01-03 20:48  
Робити 720p-mini по 2,18 ГБ, чи звичайний 720р по 4,38 ГБ?
Pegass 
VIP


З нами з: 17.12.09
Востаннє: 02.12.16
Повідомлень: 300

2013-01-03 21:14  
pyatachok
якщо можна то обоє!

ValTriK 
Поважний учасник


З нами з: 18.12.11
Востаннє: 16.11.16
Повідомлень: 238

2013-01-03 22:45  
pyatachok
як на мене , то краще по 2,18...цього цілком вистачає

Чорненька 
Новенький


З нами з: 14.12.11
Востаннє: 01.12.16
Повідомлень: 3

2013-01-11 07:54  
А коли реліз планується? Не можу дочекатись.
pyatachok 
Координатор літератури


З нами з: 30.01.10
Востаннє: 02.12.16
Повідомлень: 1337

2013-01-14 07:06  
Чорненька
За кілька днів (2-4), але я робитиму 720p (4.38 GB).

П.С. Вже є скріни до другої частини)

Чорненька 
Новенький


З нами з: 14.12.11
Востаннє: 01.12.16
Повідомлень: 3

2013-01-14 17:25  
pyatachok

Місце звільнила, в очікуванні ^_^

Дмитро митро 
Відео Гуртом - дизайнер
Відео Гуртом - дизайнер


З нами з: 18.02.09
Востаннє: 01.12.16
Повідомлень: 711

2013-01-15 23:38  
Фільм на 15 хв (І), принаймні я більше не витримав.
bot 
робот


З нами з: 30.09.07
Востаннє: 26.05.05
Повідомлень: 15965

2013-01-16 22:08  
Тему перенесено з Анонси релізів від Відео Гуртом до форуму Фільми в HD


pyatachok

pyatachok 
Координатор літератури


З нами з: 30.01.10
Востаннє: 02.12.16
Повідомлень: 1337

2013-01-16 22:33  
Припинив роздачу.
Зле підписав другу частину, зараз заміню торент.
Завантажуючі, прошу вибачення за незручності.

Додано через 3 хвилини 38 секунд:

Все, виправив.
Тепер можна вантажити.
Прошу вибачення за незручності.

urij546724 
Відео Гуртом - фільмокрай
Відео Гуртом - фільмокрай


З нами з: 16.03.10
Востаннє: 02.12.16
Повідомлень: 5222

2013-05-13 17:30  
Чудові фільми. Можливо мені просто під настрій попали, але реально сподобалось. Чудові романтичні історії, хоч і довгі, але цікаві.
umka1m 
Новенький


З нами з: 06.03.15
Востаннє: 02.12.16
Повідомлень: 10

2015-10-16 17:18  
Красно дякую. Слава Україні!
Kovex 
Відео Гуртом - підтримка та поширення
Відео Гуртом - підтримка та поширення


З нами з: 01.09.09
Востаннє: 02.12.16
Повідомлень: 398

2016-08-01 03:19  
Порадили переглянути, спробую поки чекаю на 3-й сезон КБ Wink (1)

Додано через 2 години 46 хвилин 37 секунд:

Першу частину точно нема сенсу дивитися, марно втрачені 2 години...

Ваш часовий пояс: GMT + 2 Години

Нова тема   Відповісти