Завантажити та скачати торренти українською


Це дивовижне життя / Це прекрасне життя / It's a Wonderful Life [Кольорова версія] (1946) Remux Ukr/Eng | sub Ukr/Eng

Нові коментарі

Нова тема   Відповісти
Автор Повідомлення
Omikron 
VIP


З нами з: 03.01.12
Востаннє: 09.12.16
Повідомлень: 298

2013-01-04 21:19  
Це дивовижне життя / Це прекрасне життя / It's a Wonderful Life [Кольорова версія] (1946) Remux Ukr/Eng | sub Ukr/Eng




Жанр: мелодрама
Країна: США

Top 250 #30

Кіностудія / кінокомпанія: Liberty Films (II)
Режисер: Френк Капра
Актори: Джеймс Стюарт, Донна Рід, Лайонел Беррімор, Генрі Траверс, Френк Файлен, Ворд Бонд, Ґлорія Ґрем та інші

Сюжет:
У Джорджа Бейлі ідеальне життя, яке наче зійшло з картинки: кохана дружина, Мері, четверо малих діток, власна справа, успадкована від батька. Але на Різдвяний вечір з Джорджем стаються серйозні прикрощі в його компанії "Будівництво та позика Бейлі". Дядько Джорджа, Біллі, губить готівку, яку мав покласти в банк, що належить жадібному пану Поттеру. Це призводить Джорджа до життєвої кризи і розмірковувань про самогубство. В останній момент його рятує поява його власного янгола-охоронця другої категорії (без крил) Клеренса. Клеренс показує Джорджеві, скільки насправді важить його життя, показуючи йому можливий світ без нього. Не дуже приємний: його світле, дружнє місто стає похмуре і збідніле. Зрештою Джордж змінює свою думку і Клеренс повертає його в світ, ніби нічого не трапилося. Джордж приходить додому, і знаходить усю громаду, яка назбирала гроші, дякуючи йому за постійні філантропічні позики громаді. Фільм закінчується приходом Джорджевого брата, Геррі, з війни, загальною піснею "Auld Lang Syne", і - дзвіночками, які вказують на те, що Клеренс нарешті отримав наступну категорію янгола і .... крила.


Різдвяний сюрприз!

Перекладено та озвучено студією
"Омікрон" на замовлення HURTOM.COM


Тривалість: 02:10:35
Якість: Remux
Відео:
кодек:
розмір кадру: 1920х1080
бітрейт: 37.8 Мб/с

Аудіо # 1:
мова: українська | "Студія Омікрон" |
переклад: багатоголосий закадровий
кодек: 2.0
бітрейт: 224 кб/с

Аудіо # 2:
мова: англійська
переклад: оригінал
кодек: 2.0
бітрейт: 224 кб/с

Субтитри # 1:
мова: українська
тип: пререндерні
формат: *.pgs
переклад з оригіналу: Alinea, Betina, Lion91, mishechka007

Субтитри # 2:
мова: англійська
тип: пререндерні
формат: *.pgs

Скріншоти:



Звіт MediaInfo:
Format : BDAV
Format/Info : Blu-ray Video
File size : 36.6 GiB
Duration : 2h 10mn
Overall bit rate mode : Variable
Overall bit rate : 40.1 Mbps
Maximum Overall bit rate : 35.5 Mbps

Video
ID : 4113 (0x1011)
Menu ID : 1 (0x1)
Format : AVC
Format/Info : Advanced Video Codec
Format profile : [email protected]
Format settings, CABAC : Yes
Format settings, ReFrames : 4 frames
Codec ID : 27
Duration : 2h 10mn
Bit rate mode : Variable
Bit rate : 38.1 Mbps
Maximum bit rate : 40.0 Mbps
Width : 1 920 pixels
Height : 1 080 pixels
Display aspect ratio : 16:9
Frame rate : 23.976 fps
Color space : YUV
Chroma subsampling : 4:2:0
Bit depth : 8 bits
Scan type : Progressive
Bits/(Pixel*Frame) : 0.766
Stream size : 34.7 GiB (95%)
Color primaries : BT.709
Transfer characteristics : BT.709
Matrix coefficients : BT.709

Audio #1
ID : 4352 (0x1100)
Menu ID : 1 (0x1)
Format : AC-3
Format/Info : Audio Coding 3
Mode extension : CM (complete main)
Format settings, Endianness : Big
Codec ID : 129
Duration : 2h 10mn
Bit rate mode : Constant
Bit rate : 224 Kbps
Channel(s) : 2 channels
Channel positions : Front: L R
Sampling rate : 48.0 KHz
Bit depth : 16 bits
Compression mode : Lossy
Stream size : 209 MiB (1%)
Language : Ukrainian

Audio #2
ID : 4353 (0x1101)
Menu ID : 1 (0x1)
Format : AC-3
Format/Info : Audio Coding 3
Mode extension : CM (complete main)
Format settings, Endianness : Big
Codec ID : 129
Duration : 2h 10mn
Bit rate mode : Constant
Bit rate : 224 Kbps
Channel(s) : 2 channels
Channel positions : Front: L R
Sampling rate : 48.0 KHz
Bit depth : 16 bits
Compression mode : Lossy
Stream size : 209 MiB (1%)
Language : English

Text #1
ID : 4608 (0x1200)
Menu ID : 1 (0x1)
Format : PGS
Codec ID : 144
Language : Ukrainian

Text #2
ID : 4609 (0x1201)
Menu ID : 1 (0x1)
Format : PGS
Codec ID : 144
Language : English

Text #3
ID : 4610 (0x1202)
Menu ID : 1 (0x1)
Format : PGS
Codec ID : 144
Language : English
BDInfo
Код:

                                                                                                                Total   Video
Title                                                           Codec   Length  Movie Size      Disc Size       Bitrate Bitrate Main Audio Track                          Secondary Audio Track
-----                                                           ------  ------- --------------  --------------  ------- ------- ------------------                        ---------------------
00000.MPLS                                                      AVC     2:10:35 39 322 976 256  39 323 087 400  40,15   37,80   DD 2.0 224Kbps


Код:


DISC INFO:

Disc Title:     It's a Wonderful Life [Color] (1946) [ukr,eng] Remux [Hurtom]
Disc Size:      39 323 087 400 bytes
Protection:     AACS
BD-Java:        No
BDInfo:         0.5.8

PLAYLIST REPORT:

Name:                   00000.MPLS
Length:                 2:10:35.840 (h:m:s.ms)
Size:                   39 322 976 256 bytes
Total Bitrate:          40,15 Mbps

VIDEO:

Codec                   Bitrate             Description
-----                   -------             -----------
MPEG-4 AVC Video        37800 kbps          1080p / 23,976 fps / 16:9 / High Profile 4.1

AUDIO:

Codec                           Language        Bitrate         Description
-----                           --------        -------         -----------
Dolby Digital Audio             Ukrainian       224 kbps        2.0 / 48 kHz / 224 kbps / DN -4dB
Dolby Digital Audio             English         224 kbps        2.0 / 48 kHz / 224 kbps / DN -2dB

SUBTITLES:

Codec                           Language        Bitrate         Description
-----                           --------        -------         -----------
Presentation Graphics           Ukrainian       35,413 kbps
Presentation Graphics           English         56,788 kbps
Presentation Graphics           English         60,935 kbps

FILES:

Name            Time In         Length          Size            Total Bitrate
----            -------         ------          ----            -------------
00000.M2TS      0:00:00.000     2:10:35.840     39 322 976 256  40 147

CHAPTERS:

Number          Time In         Length          Avg Video Rate  Max 1-Sec Rate  Max 1-Sec Time  Max 5-Sec Rate  Max 5-Sec Time  Max 10Sec Rate  Max 10Sec Time  Avg Frame Size  Max Frame Size  Max Frame Time
------          -------         ------          --------------  --------------  --------------  --------------  --------------  --------------  --------------  --------------  --------------  --------------
1               0:00:00.000     0:05:00.000     31 482 kbps     44 845 kbps     00:01:59.285    41 042 kbps     00:01:55.281    40 396 kbps     00:01:50.276    164 104 bytes   459 357 bytes   00:04:19.300
2               0:05:00.000     0:05:00.000     39 576 kbps     41 589 kbps     00:05:20.278    40 038 kbps     00:05:46.804    39 940 kbps     00:07:20.106    206 323 bytes   420 646 bytes   00:07:40.460
3               0:10:00.000     0:05:00.000     38 523 kbps     41 423 kbps     00:13:38.692    40 017 kbps     00:11:48.791    39 837 kbps     00:13:00.571    200 837 bytes   457 661 bytes   00:12:15.484
4               0:15:00.000     0:05:00.000     37 521 kbps     41 075 kbps     00:15:01.358    39 841 kbps     00:17:01.562    39 785 kbps     00:17:01.562    195 611 bytes   393 510 bytes   00:15:11.869
5               0:20:00.000     0:05:00.000     38 409 kbps     41 098 kbps     00:24:29.009    40 020 kbps     00:24:27.966    39 835 kbps     00:24:28.091    200 242 bytes   441 096 bytes   00:24:35.974
6               0:25:00.000     0:05:00.000     37 350 kbps     40 997 kbps     00:29:22.886    39 818 kbps     00:29:04.534    39 717 kbps     00:25:16.556    194 749 bytes   405 503 bytes   00:28:09.437
7               0:30:00.000     0:05:00.000     38 606 kbps     41 316 kbps     00:34:15.136    39 979 kbps     00:34:11.007    39 857 kbps     00:34:06.002    201 267 bytes   383 512 bytes   00:34:14.427
8               0:35:00.000     0:05:00.000     37 643 kbps     41 724 kbps     00:37:49.183    40 014 kbps     00:37:29.205    39 851 kbps     00:36:08.249    196 250 bytes   421 766 bytes   00:36:11.252
9               0:40:00.000     0:05:00.000     37 032 kbps     41 335 kbps     00:42:52.236    39 961 kbps     00:44:49.812    39 778 kbps     00:44:49.937    193 065 bytes   471 926 bytes   00:42:50.276
10              0:45:00.000     0:05:00.000     38 618 kbps     41 331 kbps     00:45:15.337    40 066 kbps     00:46:14.062    39 866 kbps     00:45:06.453    201 334 bytes   441 168 bytes   00:46:06.472
11              0:50:00.000     0:05:00.000     37 861 kbps     41 648 kbps     00:52:14.756    40 032 kbps     00:53:57.817    39 913 kbps     00:53:52.687    197 412 bytes   451 637 bytes   00:54:00.862
12              0:55:00.000     0:05:00.000     38 563 kbps     41 055 kbps     00:55:24.738    39 943 kbps     00:55:20.442    39 844 kbps     00:56:13.161    201 046 bytes   434 463 bytes   00:58:43.603
13              1:00:00.000     0:05:00.000     37 106 kbps     41 545 kbps     01:04:56.684    40 021 kbps     01:04:43.129    39 785 kbps     01:04:42.878    193 448 bytes   449 684 bytes   01:04:47.800
14              1:05:00.000     0:05:00.000     38 585 kbps     41 318 kbps     01:08:25.017    40 062 kbps     01:07:53.527    39 897 kbps     01:07:51.692    201 161 bytes   457 380 bytes   01:07:19.493
15              1:10:00.000     0:05:00.000     37 005 kbps     41 170 kbps     01:12:37.811    40 058 kbps     01:12:17.207    39 871 kbps     01:11:50.305    192 920 bytes   419 687 bytes   01:10:06.702
16              1:15:00.000     0:05:00.000     38 673 kbps     42 583 kbps     01:16:35.549    40 108 kbps     01:17:18.550    39 875 kbps     01:19:38.690    201 648 bytes   446 629 bytes   01:17:23.555
17              1:20:00.000     0:05:00.000     38 217 kbps     41 422 kbps     01:20:21.775    39 996 kbps     01:20:21.024    39 885 kbps     01:20:21.650    199 242 bytes   437 481 bytes   01:20:17.187
18              1:25:00.000     0:05:00.000     38 320 kbps     41 264 kbps     01:26:16.671    40 034 kbps     01:26:05.451    39 846 kbps     01:25:26.955    199 776 bytes   437 772 bytes   01:26:16.713
19              1:30:00.000     0:05:00.000     37 152 kbps     41 182 kbps     01:33:08.207    40 002 kbps     01:32:00.806    39 862 kbps     01:32:00.556    193 687 bytes   431 216 bytes   01:30:28.798
20              1:35:00.000     0:05:00.000     38 538 kbps     42 352 kbps     01:37:52.074    39 974 kbps     01:36:27.448    39 807 kbps     01:37:23.212    200 915 bytes   383 747 bytes   01:36:32.453
21              1:40:00.000     0:05:00.000     38 865 kbps     40 892 kbps     01:40:14.716    39 936 kbps     01:44:31.932    39 784 kbps     01:41:50.437    202 649 bytes   358 019 bytes   01:42:23.136
22              1:45:00.000     0:05:00.000     37 986 kbps     41 684 kbps     01:47:44.249    40 077 kbps     01:47:40.287    39 894 kbps     01:47:35.282    198 037 bytes   394 544 bytes   01:48:44.476
23              1:50:00.000     0:05:00.000     37 189 kbps     41 979 kbps     01:53:44.984    40 129 kbps     01:53:26.799    39 846 kbps     01:53:22.003    193 879 bytes   421 822 bytes   01:54:02.627
24              1:55:00.000     0:05:00.000     37 749 kbps     41 274 kbps     01:55:10.778    39 937 kbps     01:58:22.512    39 762 kbps     01:59:07.723    196 800 bytes   452 325 bytes   01:56:23.601
25              2:00:00.000     0:05:00.000     37 747 kbps     41 374 kbps     02:02:57.912    39 981 kbps     02:03:47.920    39 870 kbps     02:03:13.594    196 792 bytes   401 887 bytes   02:03:38.702
26              2:05:00.000     0:05:00.000     38 471 kbps     41 790 kbps     02:05:35.235    40 150 kbps     02:05:31.273    39 889 kbps     02:05:26.268    200 594 bytes   413 871 bytes   02:09:00.023
27              2:10:00.000     0:00:35.840     37 943 kbps     41 910 kbps     02:10:26.235    40 144 kbps     02:10:22.231    39 930 kbps     02:10:17.226    198 119 bytes   416 309 bytes   02:10:32.658

STREAM DIAGNOSTICS:

File            PID             Type            Codec           Language                Seconds                 Bitrate                 Bytes           Packets
----            ---             ----            -----           --------                --------------          --------------          -------------   -----
00000.M2TS      4113 (0x1011)   0x1B            AVC                                     7835,745                37 801                  37 024 557 452  201 330 100
00000.M2TS      4352 (0x1100)   0x81                         ukr (Ukrainian)         7835,745                224                     219 404 416     1 224 355
00000.M2TS      4353 (0x1101)   0x81                         eng (English)           7835,745                224                     219 403 520     1 224 354
00000.M2TS      4608 (0x1200)   0x90            PGS             ukr (Ukrainian)         7835,745                35                      34 686 684      203 692
00000.M2TS      4609 (0x1201)   0x90            PGS             eng (English)           7835,745                57                      55 623 210      318 254
00000.M2TS      4610 (0x1202)   0x90            PGS             eng (English)           7835,745                61                      59 684 536      343 137

Про озвучення

Українське озвучення створено студією "Омікрон" на замовлення Hurtom.com в рамках проекту "Хочеш кіно українською? Замовляй!"



Дякуємо користувачам, що фінансово допомогли проекту:
buddilnik, orest_music, funtruhnet, Uptown, olfed111, vifilo, sigito, Oleksandr, ron_, Рудобородий, lomkovsky, Navarra, igor911, talantgor, Nevestiuk, shambig, velizariy, Batiaruk, vovaz, arey81, boblv, shangri-la, leshkm, 5E_koleco, webamator.org.ua, sanekjn, YURIYUXO, stadion.lviv.ua, SunWind, wtr, dimaandr, Xobit, Kalynka Rosso, nazar, knockout, Кость, dimic, Infoserfer, Кумяр, TIPERUS, antoxxa082, yarik_ratnik, nastik., TriVVet, IvanB123456, Roni, Петро21, albioriks, denskipper, avtoboss, yozhh, vdima82, steeple, Gotenot, Лілія, nik, ameks, mikolay, @knygoyid, @knygoyid, sashaiv74, Кузьма72, jona, Olegatr, М_а_м_а_й, have got, TarasD, GodSaveUkraine, shtein, Gxost, Олександр, Sturm_UA, Jonsen, lynxnake, OlegVysh, Demetrios, Sirpent, tarand, zalexxx, barbarian, Tank302, Неля Глушко, chaliy, merlin_zaraza, cyclone2000, rybanok27, alex4e, Ingvar, Aussie, loiknazar, olfed111, Sensetivity, cyberprostir, Est, Sepoolka, bandera77, Vikk, Warrog, GrossQX, zavzyata, ValicV, Myshko3007, ghost392, Soarus12345, Fizia, vladyk, Xshot, viter07, Yellow_man, iro4ka_skin, lerk, MisterR, tumick, Leksyk, Chirka, somnambula, MarianB, Mr Yuran, nelester, panama58, Лунсар, Sheldon, stalker_cv, yg, Nikson, fishMD, nemos, hummer
Також дякуємо користувачам, що надали фінансову допомогу, але побажали бути анонімними.

Детальніше про проект.
За опис сюжету подяка Віктору.
За постер подяка Nofeeler.

Джерело:

Фільми, які було озвучено на замовлення Гуртом (допоможіть озвучити наступні):
М: Місто шукає вбивцю (1931)
Чарівник країни Оз (1939)
Великий диктатор (1940)
Громадянин Кейн (1941)
Подвійна страховка (1944)
Це дивовижне життя (1946)
Викрадачі велосипедів (1948)
Рашьомон (1950)
Сім самураїв (1954)
У випадку вбивства телефонуйте "М" (1954)
Леді та Блудько (1955) нове
12 розгніваних чоловіків (1957)
Сьома печатка (1957)
На північ через північний захід (1959)
Більярдист (1961)
Охоронець (1961)
Вбити пересмішника (1962)
Людина, що вбила Ліберті Веленса (1962)
Вісім з половиною (1963)
Велика прогулянка (1966)
Як Ґрінч украв Різдво! (1966)
Випускник (1967)
Самурай (1967)
Одного разу на Дикому Заході (1968)
Коти-аристократи (1970)
Механічний апельсин (1971)
Навколо світу за 80 днів (1972) нове
Китайський квартал (1974)
Пролітаючи над гніздом зозулі (1975)
Телемережа (1976)
Енні Голл (1977) нове
Мисливець на оленів (1978)
Буття Брайана за Монті Пайтоном (1979)
Коли я буду там (1979)
Мангеттен (1979)
Людина-слон (1980)
Приборкання норовливого (1980)
Скажений бик (1980)
Підводний човен (1981)
Ґанді (1982)
Король комедії (1982) нове
Різдвяна історія (1983)
Амадей (1984)
Барва пурпурова (1985)
Бразилія (1985)
Ран (1985)
Великий мишачий детектив (1986)
Небесний замок Лапута (1986)
Акіра (1988)
Мій сусід Тоторо (1988)
Останній з могікан (1992)
Скажені пси (1992)
Шосе в нікуди (1997) нове
Американська історія Ікс (1998)
Страх і огида в Лас-Вегасі (1998)
Шоу Трумена (1998)
Догма (1999)
Магнолія (1999) нове
Сука любов (2000) нове
Нічия земля (2001)
Родина Тененбаумів (2001)
Тріо з Бельвіля (2003)
Труднощі перекладу (2003)
Бункер (2004)
Готель Руанда (2004)
Тренер Картер (2005)
Льодовиковий період 2 (2006)
Лабіринт Фавна (2006)
Людина з планети Земля (2007)
В тіні місяця (2007)
Голод (2008)
Іп Мен (2008)
Викрадена (2008)
Впусти мене (2008)
Хвиля (2008)
Містер Ніхто (2009)
13 вбивць (2010)
Бетмен: Під червоною маскою (2010)
Іп Мен 2 (2010)
Котяче життя (2010)
Позичайка Аріетті (2010)
Чорний Лебідь (2010)
Місто (2010)
Сенна (2010)
50/50 (2011)
Адвокат на лінкольні (2011)
Дерево життя (2011)
Опівночі в Парижі (2011)
Воїн (2011)
Драйв (2011)
Життя за один день (2011)
Укриття (2011)
Хижа в лісі (2011)
Рейд: Спокута (2011)
Акт вбивства (2012)
Арго (2012)
Безпека не гарантується (2012)
Викрадена 2 (2012)
Збірка промінців надії (2012)
Ернест і Селестіна (2012)
Звірі дикого Півдня (2012)
Лінкольн (2012)
Любов (2012)
Надійні хлопці (2012)
Паркер (2012)
Переваги скромників (2012)
Пліч-о-пліч (2012)
Полювання (2012)
Розірване коло (2012)
Суддя Дредд (2012)
Тридцять хвилин по півночі (2012)
Що б ви зробили (2012)
Американська афера (2013)
Виклик (2013)
Вона (2013)
Ворог (2013)
Всередині Л'ювіна Девіса (2013)
Джо (2013)
Зловісні мерці (2013)
Іда (2013)
Лок (2013)
Небраска (2013)
Неймовірна подорож містера Співета (2013) нове
Побічна дія (2013)
Перед північчю (2013)
Снігобур (2013)
Стокер (2013)
TPB: за межами клавіатури (2013)
Гниле місто (2013)
Бердмен (2014)
Вероніка Марс (2014)
Вроджена вада (2014) нове
Дика (2014) нове
Інтерв'ю (2014) нове
Святий Вінсент (2014)
Пісня моря (2014) нове
Призначення (2014) нове
Шеф-кухар (2014)


Авторський реліз (завантажувати можна без реєстрації)
 Трекер:    Зареєстрований   

Завантажити / скачати фільм українською



відео для новачків



 Зареєстрований:   2013-01-04 18:53
 Розмір:   36.62 GB 
 Оцінка фільму:   9.4/10 (Голосів: 7)
   
Konfucius 
Управління
Управління


З нами з: 30.09.07
Востаннє: 09.12.16
Повідомлень: 4746

2013-01-04 21:51  
Кольорові версії:
480p
720p
Remux

Чорно-білі версії:
480p
720p
Remux

flink 
Оцифрування книг Гуртом
Оцифрування книг Гуртом


З нами з: 10.11.08
Востаннє: 09.12.16
Повідомлень: 90

2013-01-05 10:37  
якщо Remux об'єднує в собі і кольорову і чорно-білу версії то навіщо створювати дві роздачі?
77NewMan77 
Свій


З нами з: 25.08.10
Востаннє: 04.12.16
Повідомлень: 71

2013-01-05 11:04  
flink написано:
якщо Remux об'єднує в собі і кольорову і чорно-білу версії то навіщо створювати дві роздачі?

як це об'єднує і кольорову і чорно-білу - хіба так можна, два відео ряди в одному файлі??)

flink 
Оцифрування книг Гуртом
Оцифрування книг Гуртом


З нами з: 10.11.08
Востаннє: 09.12.16
Повідомлень: 90

2013-01-05 11:57  
ремукс це не один файл
DеLight 
Відео Гуртом - фільмокрай
Відео Гуртом - фільмокрай


З нами з: 24.08.11
Востаннє: 17.11.16
Повідомлень: 663

2013-01-05 12:04  
77NewMan77 написано:
як це об'єднує і кольорову і чорно-білу - хіба так можна, два відео ряди в одному файлі??)

Звичайно можливо, аудіодоріжок декілька, так само і відео, це теж доріжки, просто відео займає основний розмір, у даному випадку це
Omikron написано:
Stream size : 34.7 GiB (95%)
, а не всім потрібно обидві версії, тому зроблено так, щоб був вибір, і люди не вантажили зайві 35 Гб відеоряду.
Ваш часовий пояс: GMT + 2 Години

Нова тема   Відповісти