Завантажити та скачати торренти українською


Хороший рік / A Good Year (2006) 720p Ukr/Eng

Нові коментарі

Нова тема   Відповісти
Автор Повідомлення
Magda-Lena 
Частий відвідувач


З нами з: 19.01.11
Востаннє: 03.12.16
Повідомлень: 33

2012-12-30 12:40  
Хороший рік / A Good Year (2006) 720p Ukr/Eng

Хороший рік / A Good Year (2006) 720p Ukr/Eng


Жанр: драма, мелодрама, комедія
Країна: США, Великобританія



Кіностудія / кінокомпанія: Fox 2000 Pictures, Scott Free Productions
Режисер: Рідлі Скотт
Актори: Рассел Кроу, Маріон Котійяр, Альберт Фінні, Еббі Корніш, Фредді Хаймор, Том Холландер, Арчі Панджабі

Сюжет:
Макс Скінер(Рассел Кроу) великий гравець на Лондонській фондовій біржі, розумний і удачливий керуючий, а також жахливий зануда, отримує в спадок виноробню в Провансі. По приїзду до Франції він дізнається, що не він один претендує на свою законну спадщину. До усвідомлення справжніх цінностей його підводить ряд неймовірних подій, кардинально змінюють його долю і ставлення до світу навколо.


Тривалість: 01:57:32
Якість:
Відео:
кодек:
розмір кадру: 1280 х 544
бітрейт: 4 003 кб/с
система: NTSC 23.976

Аудіо # 1:
мова: українська
переклад: двоголосий закадровий
кодек: 5.1
бітрейт: 448 кб/с

Аудіо # 2:
мова: англійська
переклад: оригінал
кодек: 5.1
бітрейт: 384 кб/с

Джерело озвучення:


Скріншоти:









МедіаІнфо:

Unique ID : 214318116742181840534841586110946376305 (0xA13C2AF941894556AA19A699D3747A71)
Complete name : Хороший рік - A Good Year (Рассел Кроу, Маріон Котійяр)_2006.mkv
Format : Matroska
Format version : Version 2
File size : 4.05 GiB
Duration : 1h 57mn
Overall bit rate : 4 933 Kbps
Movie name : Хороший рік - A Good Year (Рассел Кроу, Маріон Котійяр)_2006
Encoded date : UTC 2012-12-29 15:48:23
Writing application : mkvmerge v4.0.0
Writing library : libebml v1.0.0 + libmatroska v1.0.0
Attachment : Yes

Video
ID : 1
Format : AVC
Format/Info : Advanced Video Codec
Format profile : [email protected]
Format settings, CABAC : No
Format settings, ReFrames : 2 frames
Codec ID : V_MPEG4/ISO/AVC
Duration : 1h 57mn
Bit rate : 4 003 Kbps
Width : 1 280 pixels
Height : 544 pixels
Display aspect ratio : 2.35:1
Frame rate : 23.976 fps
Color space : YUV
Chroma subsampling : 4:2:0
Bit depth : 8 bits
Scan type : Progressive
Bits/(Pixel*Frame) : 0.240
Stream size : 3.29 GiB (81%)
Title : A Good Year
Language : English
Default : No
Forced : No
Color primaries : BT.709-5, BT.1361, IEC 61966-2-4, SMPTE RP177
Transfer characteristics : BT.709-5, BT.1361
Matrix coefficients : BT.709-5, BT.1361, IEC 61966-2-4 709, SMPTE RP177

Audio #1
ID : 2
Format : AC-3
Format/Info : Audio Coding 3
Mode extension : CM (complete main)
Codec ID : A_AC3
Duration : 1h 57mn
Bit rate mode : Constant
Bit rate : 448 Kbps
Channel(s) : 6 channels
Channel positions : Front: L C R, Side: L R, LFE
Sampling rate : 48.0 KHz
Bit depth : 16 bits
Compression mode : Lossy
Delay relative to video : 2s 300ms
Stream size : 377 MiB (9%)
Title : DVO (1+1, TET)
Language : Ukrainian
Default : No
Forced : No

Audio #2
ID : 3
Format : AC-3
Format/Info : Audio Coding 3
Mode extension : CM (complete main)
Codec ID : A_AC3
Duration : 1h 57mn
Bit rate mode : Constant
Bit rate : 384 Kbps
Channel(s) : 6 channels
Channel positions : Front: L C R, Side: L R, LFE
Sampling rate : 48.0 KHz
Bit depth : 16 bits
Compression mode : Lossy
Stream size : 323 MiB (8%)
Title : original
Language : English
Default : No
Forced : No


СЕМПЛ+ФІЛЬМ на 2ГБ

Особиста оцінка: мені дуже подобається


 Трекер:    Зареєстрований   

Завантажити / скачати фільм українською



відео для новачків



 Зареєстрований:   2012-12-30 12:40
 Розмір:   4.05 GB 
 Оцінка фільму:   10/10 (Голосів: 8)
   
SHEVA1991 
Поважний учасник


З нами з: 29.11.12
Востаннє: 02.12.16
Повідомлень: 200

2013-01-15 09:57  
Дякую за чудовий переклад і реліз!! гарний,легкий с драматичністю і комедією фільм! Забираю
Ваш часовий пояс: GMT + 2 Години

Нова тема   Відповісти