Завантажити та скачати торренти українською


Сищик / Нишпорка / Детектив / Sleuth (2007) 720p Ukr/Eng | sub Eng

Нові коментарі

Нова тема   Відповісти
Автор Повідомлення
pyatachok 
Координатор літератури


З нами з: 30.01.10
Востаннє: 08.12.16
Повідомлень: 1337

2012-12-29 00:55  
Сищик / Нишпорка / Детектив / Sleuth (2007) 720p Ukr/Eng | sub Eng

Сищик / Нишпорка / Детектив / Sleuth (2007) 720p Ukr/Eng | sub Eng


Жанр: трилер, драма, детектив
Країна: США



Кіностудія / кінокомпанія: Sony Pictures Classics, Castle Rock Entertainment
Режисер: Кеннет Брана / Kenneth Branagh
Актори: Джуд Ло, Майкл Кейн, Гарольд Пінтер, Кармел О'Салліван

Сюжет:
Процвітаючий автор детективних романів Ендрю Уайк запрошує до себе в гості Майло Тіндла, коханця своєї дружини. Той прибуває в розкішний маєток письменника, де отримує несподівану пропозицію. Сер Ендрю знає про їх зв'язок і навіть готовий відпустити дружину, але на певних умовах. Хитромудрий план включає інсценування пограбування, махінації із страховкою і вельми пікантні ситуації, що в результаті має забезпечити всім безбідне існування. Письменник і гість вступають в ризиковану гру, але ще невідомо, хто вийде з неї переможцем.

* Ця картина є римейком фільму «Гра навиліт» (1972).
* Примітно те, що Майкл Кейн брав участь і в старій версії фільму. Там він грав молодого коханця дружини головного героя. У рімейку Кейн виконав роль «одуреного чоловіка».
* У фільмі Ендрю Уайк часто приймає Майло Тіндла з перукарем. В оригінальному фільмі 1972 Майло був перукарем, а не актором.


Тривалість: 01:28:41
Якість: 720р
Відео:
кодек:
розмір кадру: 1280 х 546
бітрейт: 5 679 кб/с

Аудіо # 1:
мова: українська
переклад: багатоголосий закадровий - озвучено ТТП
кодек: 5.1
бітрейт: 448 кб/с

Аудіо # 2:
мова: англійська
переклад: оригінал
кодек: 5.1
бітрейт: 448 кб/с

Аудіо # 3-4:
мова: англійська (Коментарі)
переклад: оригінал
кодек: 2.0
бітрейт: 192 кб/с

Субтитри:
мова: англійська
тип: програмні (м'які)
формат: *.srt
MediaInfo
General
Unique ID : 253502679493424996336778306007619654983 (0xBEB6D71389C522C7B6771A6BC078D547)
Complete name : D:\Hurtom\Sleuth (2007) [Ukr, Eng] [sub.Eng] 720p [Hurtom-pyatachok].mkv
Format : Matroska
Format version : Version 4 / Version 2
File size : 4.40 GiB
Duration : 1h 28mn
Overall bit rate : 7 100 Kbps
Movie name : Sleuth (2007) - Release for Hurtom
Encoded date : UTC 2010-02-22 21:41:31
Writing application : mkvmerge v5.9.0 ('On The Loose') built on Dec 9 2012 15:37:01
Writing library : libebml v1.3.0 + libmatroska v1.4.0

Video
ID : 1
Format : AVC
Format/Info : Advanced Video Codec
Format profile : [email protected]
Format settings, CABAC : Yes
Format settings, ReFrames : 7 frames
Codec ID : V_MPEG4/ISO/AVC
Duration : 1h 28mn
Bit rate : 5 679 Kbps
Width : 1 280 pixels
Height : 546 pixels
Display aspect ratio : 2.35:1
Frame rate mode : Constant
Frame rate : 23.976 fps
Color space : YUV
Chroma subsampling : 4:2:0
Bit depth : 8 bits
Scan type : Progressive
Bits/(Pixel*Frame) : 0.339
Stream size : 3.52 GiB (80%)
Title : Sleuth (2007)
Writing library : core 112 r1834 a51816a
Encoding settings : cabac=1 / ref=7 / deblock=1:-3:-3 / analyse=0x3:0x113 / me=umh / subme=10 / psy=1 / psy_rd=1.05:0.10 / mixed_ref=1 / me_range=64 / chroma_me=1 / trellis=2 / 8x8dct=1 / cqm=0 / deadzone=21,11 / fast_pskip=0 / chroma_qp_offset=-3 / threads=6 / sliced_threads=0 / nr=0 / decimate=1 / interlaced=0 / constrained_intra=0 / bframes=8 / b_pyramid=2 / b_adapt=2 / b_bias=0 / direct=1 / weightb=1 / open_gop=0 / weightp=2 / keyint=250 / keyint_min=23 / scenecut=40 / intra_refresh=0 / rc_lookahead=60 / rc=crf / mbtree=0 / crf=16.7 / qcomp=0.60 / qpmin=10 / qpmax=51 / qpstep=4 / vbv_maxrate=50000 / vbv_bufsize=62500 / crf_max=0.0 / ip_ratio=1.40 / pb_ratio=1.30 / aq=1:0.80 / nal_hrd=none
Language : English
Default : Yes
Forced : No

Audio #1
ID : 2
Format : AC-3
Format/Info : Audio Coding 3
Mode extension : CM (complete main)
Format settings, Endianness : Big
Codec ID : A_AC3
Duration : 1h 28mn
Bit rate mode : Constant
Bit rate : 448 Kbps
Channel(s) : 6 channels
Channel positions : Front: L C R, Side: L R, LFE
Sampling rate : 48.0 KHz
Bit depth : 16 bits
Compression mode : Lossy
Stream size : 284 MiB (6%)
Title : 5.1 448kbps
Language : Ukrainian
Default : Yes
Forced : No

Audio #2
ID : 3
Format : AC-3
Format/Info : Audio Coding 3
Mode extension : CM (complete main)
Format settings, Endianness : Big
Codec ID : A_AC3
Duration : 1h 28mn
Bit rate mode : Constant
Bit rate : 448 Kbps
Channel(s) : 6 channels
Channel positions : Front: L C R, Side: L R, LFE
Sampling rate : 48.0 KHz
Bit depth : 16 bits
Compression mode : Lossy
Stream size : 284 MiB (6%)
Title : 5.1ch 448 kbps
Language : English
Default : No
Forced : No

Audio #3
ID : 4
Format : AC-3
Format/Info : Audio Coding 3
Format profile : Dolby Digital
Mode extension : CM (complete main)
Format settings, Endianness : Big
Codec ID : A_AC3
Duration : 1h 28mn
Bit rate mode : Constant
Bit rate : 192 Kbps
Channel(s) : 2 channels
Channel positions : Front: L R
Sampling rate : 48.0 KHz
Bit depth : 16 bits
Compression mode : Lossy
Stream size : 122 MiB (3%)
Title : 2.0ch 192 kbps - Commentary #1
Language : English
Default : No
Forced : No

Audio #4
ID : 5
Format : AC-3
Format/Info : Audio Coding 3
Format profile : Dolby Digital
Mode extension : CM (complete main)
Format settings, Endianness : Big
Codec ID : A_AC3
Duration : 1h 28mn
Bit rate mode : Constant
Bit rate : 192 Kbps
Channel(s) : 2 channels
Channel positions : Front: L R
Sampling rate : 48.0 KHz
Bit depth : 16 bits
Compression mode : Lossy
Stream size : 122 MiB (3%)
Title : 2.0ch 192 kbps - Commentary #2
Language : English
Default : No
Forced : No

Text
ID : 6
Format : UTF-8
Codec ID : S_TEXT/UTF8
Codec ID/Info : UTF-8 Plain Text
Language : English
Default : No
Forced : No

Menu
00:00:00.000 : en:1.
00:07:25.111 : en:2.
00:10:02.435 : en:3.
00:15:29.971 : en:4.
00:20:37.611 : en:5.
00:24:59.331 : en:6.
00:30:02.968 : en:7.
00:36:00.909 : en:8.
00:38:35.939 : en:9.
00:44:53.524 : en:10.
00:51:30.713 : en:11.
00:56:30.554 : en:12.
01:04:19.981 : en:13.
01:09:15.360 : en:14.
01:15:16.470 : en:15.
01:20:47.092 : en:16.
Скріншоти



За українську доріжку подяка MAKAPOHHIK


Джерело: &
Особиста оцінка: 8 - мені сподобалося


 Трекер:    Зареєстрований   

Завантажити / скачати фільм українською



відео для новачків



 Зареєстрований:   2012-12-29 00:55
 Розмір:   4.38 GB 
 Оцінка фільму:   9.2/10 (Голосів: 15)
   
mr.sTrah 
Новенький


З нами з: 05.12.10
Востаннє: 05.12.16
Повідомлень: 8

2012-12-29 10:31  
Фільм на 5/10, нудний та затягнутий, краще щось інше подивіться Happy
WorldMaster 
Частий відвідувач


З нами з: 10.10.11
Востаннє: 08.12.16
Повідомлень: 47

2012-12-29 16:05  
Фільм на 10/10. Нижче його оцінять хіба що діти, бо нерозуміють складнощів дорослого життя і тонкощів англійської іронії. Фільм побудований на грі всього (ікс*)-х діючих персонажах на тих і самих лаштунках, а тому таке відчуття наче дивишся театральну виставу, насолоджуєшся геніальною грою акторів.

* не вказую реальне число, аби зберегти інтригу фільму.

Alinea 
Відео Гуртом - субтитрування
Відео Гуртом - субтитрування


З нами з: 18.07.09
Востаннє: 05.12.16
Повідомлень: 128

2012-12-30 08:07  
WorldMaster написано:
Фільм на 10/10. Нижче його оцінять хіба що діти, бо нерозуміють складнощів дорослого життя і тонкощів англійської іронії.


Нижче його можуть оцінити ще ті, хто бачив Sleuth (1972)
Подивіться, порівняйте. Цікаво, яку оцінку ви поставите тоді Happy

Tarasyk 
Відео Гуртом - фільмокрай
Відео Гуртом - фільмокрай


З нами з: 26.08.09
Востаннє: 28.11.16
Повідомлень: 5972

2012-12-30 10:48  
Лишив лише ті коментарі, що стосуються фільму. Свої пропозиції надсилайте студії ТакТребаПродакшн, а не релізеру. А то тут всі такі грамотні, але відстоювати свою позицію можуть лише в безглуздих суперечках на Толоці.
Руєвіт 
Новенький


З нами з: 11.10.09
Востаннє: 07.12.16
Повідомлень: 4

2012-12-30 13:13  
А ми й не сперечалися... Класний фільм!
marcipanka 
Новенький


З нами з: 20.12.12
Востаннє: 04.12.16
Повідомлень: 1

2012-12-30 22:54  
Картина інтригує.. Фінал відкритий, хочеться продовження.
Gwedolina 
Новенький


З нами з: 15.06.11
Востаннє: 08.12.16
Повідомлень: 21

2013-01-16 20:53  
Цікаве кіно, але оригинал - тобто фільм 1972 року - звичайно, якісніший. Хоча у цьому варіанті теж багато своїх плюсів. Для домашнього перегляду - саме те.
Косячок справжній 
VIP


З нами з: 29.02.12
Востаннє: 08.12.16
Повідомлень: 658

2016-10-31 21:03  
Сильна гра акторів, безперечно.
Ваш часовий пояс: GMT + 2 Години

Нова тема   Відповісти