Завантажити та скачати торренти українською


Uлія Лорd (Юлія Лорд) - 8 Секунд (2012) [FLAC] | Synth Rock / Alternative

Нові коментарі

Нова тема   Відповісти
Останній раз роздавалося EarthPhantom (2016-11-26)
Автор Повідомлення
muhomor 
VIP


З нами з: 04.12.11
Востаннє: 29.11.16
Повідомлень: 297

2012-12-28 08:59  
Uлія Лорd (Юлія Лорд) - 8 Секунд (2012) [FLAC] | Synth Rock / Alternative

Uлія Лорd (Юлія Лорд) - 8 Секунд (2012) [FLAC] | Synth Rock / Alternative


Стиль: Synth Rock / Alternative
Країна, місто: Україна, Київ
Сайти: Офіційний сайт
Видавець: Lavina Music
Виконавці:
Юлія Лорд - музика та слова до усіх пісень
Пісні:
    01. 8 Секунд
    02. Тіло
    03. Радіо Джульєтта/Білим Снігом
    04. Бути Злою
    05. Ліки
    06. Мелодія Світла
    07. Любиш–Знаю
    08. Танцюй! Ромео!
    09. Вхідний Пароль
    10. Сяєш
    11. Вміти Не Забувати
    12. Скажи
    13. Ти Можеш Торкнутись Мене Язиком
    14. Втомлені Ріки
    Audiochecker


    AUDIOCHECKER v2.0 beta (build 457) - by Dester - [email protected]
    ~~~~~~~~~~~~~~~~~~~~~~~~~~~~~~~~~~

    Started at: пятница, 28. 12. 2012. - 8:50.59
    14 files found

    01 -===- D:\hurtom.com\Uлія Лорd - «8 Секунд» (2012) (FLAC)\01 Uлія Лорd 8 Секунд.flac
    Extracted successfully
    Conclusion: this track is CDDA with probability 100%
    Tempfile successfully deleted.

    02 -===- D:\hurtom.com\Uлія Лорd - «8 Секунд» (2012) (FLAC)\02 Uлія Лорd Тіло.flac
    Extracted successfully
    Conclusion: this track is CDDA with probability 100%
    Tempfile successfully deleted.

    03 -===- D:\hurtom.com\Uлія Лорd - «8 Секунд» (2012) (FLAC)\03 Uлія Лорd Радіо Джульєтта,Білим Снігом.flac
    Extracted successfully
    Conclusion: this track is CDDA with probability 100%
    Tempfile successfully deleted.

    04 -===- D:\hurtom.com\Uлія Лорd - «8 Секунд» (2012) (FLAC)\04 Uлія Лорd Бути Злою.flac
    Extracted successfully
    Conclusion: this track is CDDA with probability 100%
    Tempfile successfully deleted.

    05 -===- D:\hurtom.com\Uлія Лорd - «8 Секунд» (2012) (FLAC)\05 Uлія Лорd Ліки.flac
    Extracted successfully
    Conclusion: this track is CDDA with probability 100%
    Tempfile successfully deleted.

    06 -===- D:\hurtom.com\Uлія Лорd - «8 Секунд» (2012) (FLAC)\06 Uлія Лорd Мелодія Світла.flac
    Extracted successfully
    Conclusion: this track is CDDA with probability 100%
    Tempfile successfully deleted.

    07 -===- D:\hurtom.com\Uлія Лорd - «8 Секунд» (2012) (FLAC)\07 Uлія Лорd Любиш–Знаю.flac
    Extracted successfully
    Conclusion: this track is CDDA with probability 99%
    Tempfile successfully deleted.

    08 -===- D:\hurtom.com\Uлія Лорd - «8 Секунд» (2012) (FLAC)\08 Uлія Лорd Танцюй! Ромео!.flac
    Extracted successfully
    Conclusion: this track is CDDA with probability 100%
    Tempfile successfully deleted.

    09 -===- D:\hurtom.com\Uлія Лорd - «8 Секунд» (2012) (FLAC)\09 Uлія Лорd Вхідний Пароль.flac
    Extracted successfully
    Conclusion: this track is CDDA with probability 100%
    Tempfile successfully deleted.

    10 -===- D:\hurtom.com\Uлія Лорd - «8 Секунд» (2012) (FLAC)\10 Uлія Лорd Сяєш.flac
    Extracted successfully
    Conclusion: this track is CDDA with probability 100%
    Tempfile successfully deleted.

    11 -===- D:\hurtom.com\Uлія Лорd - «8 Секунд» (2012) (FLAC)\11 Uлія Лорd Вміти Не Забувати.flac
    Extracted successfully
    Conclusion: this track is CDDA with probability 100%
    Tempfile successfully deleted.

    12 -===- D:\hurtom.com\Uлія Лорd - «8 Секунд» (2012) (FLAC)\12 Uлія Лорd Скажи.flac
    Extracted successfully
    Conclusion: this track is CDDA with probability 100%
    Tempfile successfully deleted.

    13 -===- D:\hurtom.com\Uлія Лорd - «8 Секунд» (2012) (FLAC)\13 Uлія Лорd Ти Можеш Торкнутись Мене Язиком.flac
    Extracted successfully
    Conclusion: this track is CDDA with probability 100%
    Tempfile successfully deleted.

    14 -===- D:\hurtom.com\Uлія Лорd - «8 Секунд» (2012) (FLAC)\14 Uлія Лорd Втомлені Ріки.flac
    Extracted successfully
    Conclusion: this track is CDDA with probability 100%
    Tempfile successfully deleted.

    Finished at: пятница, 28. 12. 2012. - 8:56.32 (operation time: 0:05.33)
    Log

    Exact Audio Copy V1.0 beta 3 from 29. August 2011

    Отчёт EAC об извлечении, выполненном 26. декабря 2012, 13:03

    Uлія Лорd / 8 Секунд

    Дисковод: ASUS DRW-2014S1T Adapter: 2 ID: 8

    Режим чтения : Достоверность
    Использование точного потока : Да
    Отключение кэша аудио : Да
    Использование указателей C2 : Нет

    Коррекция смещения при чтении : 6
    Способность читать области Lead-in и Lead-out : Нет
    Заполнение пропущенных сэмплов тишиной : Да
    Удаление блоков с тишиной в начале и конце : Нет
    При вычислениях CRC использовались нулевые сэмплы : Да
    Интерфейс : Встроенный Win32-интерфейс для Win NT/2000
    Обработка зазоров : Добавлено к предыдущему треку

    Выходной формат : Пользовательский кодировщик
    Выбранный битрейт : 128 kBit/s
    Качество : Высокий
    Добавление ID3-тега : Нет
    Утилита сжатия : C:\Program Files\Exact Audio Copy\Flac\flac.exe
    Дополнительные параметры : -V -8 -T "Genre=%genre%" -T "Artist=%artist%" -T "Title=%title%" -T "Album=%albumtitle%" -T "Date=%year%" -T "Tracknumber=%tracknr%" -T "Comment=%comment%" %source%

    TOC извлечённого CD

    Трек | Старт | Длительность | Начальный сектор | Конечный сектор
    ---------------------------------------------------------------------
    1 | 0:00.00 | 3:57.34 | 0 | 17808
    2 | 3:57.34 | 3:10.44 | 17809 | 32102
    3 | 7:08.03 | 3:33.14 | 32103 | 48091
    4 | 10:41.17 | 4:17.00 | 48092 | 67366
    5 | 14:58.17 | 3:33.62 | 67367 | 83403
    6 | 18:32.04 | 3:20.25 | 83404 | 98428
    7 | 21:52.29 | 4:03.36 | 98429 | 116689
    8 | 25:55.65 | 3:18.08 | 116690 | 131547
    9 | 29:13.73 | 3:17.19 | 131548 | 146341
    10 | 32:31.17 | 3:28.58 | 146342 | 161999
    11 | 36:00.00 | 2:45.69 | 162000 | 174443
    12 | 38:45.69 | 3:54.08 | 174444 | 192001
    13 | 42:40.02 | 4:16.36 | 192002 | 211237
    14 | 46:56.38 | 3:34.09 | 211238 | 227296

    Трек 1

    Имя файла D:\Documents and Settings\user\Рабочий стол\«»—0–\01 Uлія Лорd 8 Секунд.wav

    Длина предзазора 0:00:02.00

    Пиковый уровень 95.6 %
    Скорость извлечения 5.0 X
    Качество трека 100.0 %
    CRC теста 28E12B36
    CRC копии 28E12B36
    Копирование... OK

    Трек 2

    Имя файла D:\Documents and Settings\user\Рабочий стол\«»—0–\02 Uлія Лорd Тіло.wav

    Длина предзазора 0:00:02.00

    Пиковый уровень 95.6 %
    Скорость извлечения 4.6 X
    Качество трека 99.9 %
    CRC теста EAEB4345
    CRC копии EAEB4345
    Копирование... OK

    Трек 3

    Имя файла D:\Documents and Settings\user\Рабочий стол\«»—0–\03 Uлія Лорd Радіо Джульєтта,Білим Снігом.wav

    Длина предзазора 0:00:02.00

    Пиковый уровень 95.6 %
    Скорость извлечения 5.7 X
    Качество трека 100.0 %
    CRC теста E8FAFCED
    CRC копии E8FAFCED
    Копирование... OK

    Трек 4

    Имя файла D:\Documents and Settings\user\Рабочий стол\«»—0–\04 Uлія Лорd Бути Злою.wav

    Длина предзазора 0:00:02.00

    Пиковый уровень 95.6 %
    Скорость извлечения 6.4 X
    Качество трека 100.0 %
    CRC теста EEAE4207
    CRC копии EEAE4207
    Копирование... OK

    Трек 5

    Имя файла D:\Documents and Settings\user\Рабочий стол\«»—0–\05 Uлія Лорd Ліки.wav

    Длина предзазора 0:00:02.00

    Пиковый уровень 95.6 %
    Скорость извлечения 6.5 X
    Качество трека 100.0 %
    CRC теста 5D2CBC5C
    CRC копии 5D2CBC5C
    Копирование... OK

    Трек 6

    Имя файла D:\Documents and Settings\user\Рабочий стол\«»—0–\06 Uлія Лорd Мелодія Світла.wav

    Длина предзазора 0:00:02.00

    Пиковый уровень 95.6 %
    Скорость извлечения 6.7 X
    Качество трека 100.0 %
    CRC теста BCADB90B
    CRC копии BCADB90B
    Копирование... OK

    Трек 7

    Имя файла D:\Documents and Settings\user\Рабочий стол\«»—0–\07 Uлія Лорd Любиш–Знаю.wav

    Длина предзазора 0:00:02.00

    Пиковый уровень 95.6 %
    Скорость извлечения 7.4 X
    Качество трека 100.0 %
    CRC теста F77B4A31
    CRC копии F77B4A31
    Копирование... OK

    Трек 8

    Имя файла D:\Documents and Settings\user\Рабочий стол\«»—0–\08 Uлія Лорd Танцюй! Ромео!.wav

    Длина предзазора 0:00:02.00

    Пиковый уровень 95.6 %
    Скорость извлечения 7.6 X
    Качество трека 100.0 %
    CRC теста BA827089
    CRC копии BA827089
    Копирование... OK

    Трек 9

    Имя файла D:\Documents and Settings\user\Рабочий стол\«»—0–\09 Uлія Лорd Вхідний Пароль.wav

    Длина предзазора 0:00:02.00

    Пиковый уровень 95.6 %
    Скорость извлечения 7.9 X
    Качество трека 100.0 %
    CRC теста D5532EB9
    CRC копии D5532EB9
    Копирование... OK

    Трек 10

    Имя файла D:\Documents and Settings\user\Рабочий стол\«»—0–\10 Uлія Лорd Сяєш.wav

    Длина предзазора 0:00:02.00

    Пиковый уровень 95.6 %
    Скорость извлечения 8.1 X
    Качество трека 100.0 %
    CRC теста 907876C7
    CRC копии 907876C7
    Копирование... OK

    Трек 11

    Имя файла D:\Documents and Settings\user\Рабочий стол\«»—0–\11 Uлія Лорd Вміти Не Забувати.wav

    Длина предзазора 0:00:02.00

    Пиковый уровень 95.6 %
    Скорость извлечения 8.1 X
    Качество трека 100.0 %
    CRC теста 8C9ACED3
    CRC копии 8C9ACED3
    Копирование... OK

    Трек 12

    Имя файла D:\Documents and Settings\user\Рабочий стол\«»—0–\12 Uлія Лорd Скажи.wav

    Длина предзазора 0:00:02.00

    Пиковый уровень 95.6 %
    Скорость извлечения 8.7 X
    Качество трека 100.0 %
    CRC теста 6196F3FD
    CRC копии 6196F3FD
    Копирование... OK

    Трек 13

    Имя файла D:\Documents and Settings\user\Рабочий стол\«»—0–\13 Uлія Лорd Ти Можеш Торкнутись Мене Язиком.wav

    Длина предзазора 0:00:02.00

    Пиковый уровень 95.6 %
    Скорость извлечения 9.1 X
    Качество трека 100.0 %
    CRC теста 1C26827B
    CRC копии 1C26827B
    Копирование... OK

    Трек 14

    Имя файла D:\Documents and Settings\user\Рабочий стол\«»—0–\14 Uлія Лорd Втомлені Ріки.wav

    Длина предзазора 0:00:02.00

    Пиковый уровень 95.6 %
    Скорость извлечения 8.0 X
    Качество трека 99.9 %
    CRC теста 3F986B4D
    CRC копии 3F986B4D
    Копирование... OK

    Ошибок не произошло

    Конец отчёта

    ==== Контрольная сумма отчёта A10AEFA7920C76CE9EE884AC22B74DA98510CD5CD88F1912F1C2DDDA07B13479 ====

Тривалість: 00:50:26
Мова: українська
Аудіо-кодек: FLAC
Бітрейт: 971 кб/с
Джерело: ріп із власного CD
Додаткова інформація:
перший студійний альбом за 14 років!


Якщо Ви справді бажаєте підтримати українське - після прослуховування, якщо музика вам сподобалась, придбайте ліцензійний диск. Підтримаймо вітчизняних виконавців!


Срібний реліз (на рейтинг впливає 50% завантаженого)
 Трекер:    Зареєстрований   

Завантажити / скачати українську музику



відео для новачків



 Зареєстрований:   2012-12-28 08:59
 Розмір:   351 MB 
 Оцінка музики:   10/10 (Голосів: 7)
   
Lev 
VIP


З нами з: 14.10.09
Востаннє: 05.12.16
Повідомлень: 1819

2012-12-28 22:28  
а в буклеті є список музикантів, які брали участь у записі альбому?
muhomor 
VIP


З нами з: 04.12.11
Востаннє: 29.11.16
Повідомлень: 297

2012-12-29 08:15  
Lev написано:

додано: 2012-12-28 22:28  
а в буклеті є список музикантів, які брали участь у записі альбому?


та в тому й то справа, що нема. там тільки список пісень і хто автор кожної.

Lev 
VIP


З нами з: 14.10.09
Востаннє: 05.12.16
Повідомлень: 1819

2012-12-29 13:10  
muhomor написано:
і хто автор кожної.


а хіба автор не один?
до речі, можна сподіватися на скани буклету?

muhomor 
VIP


З нами з: 04.12.11
Востаннє: 29.11.16
Повідомлень: 297

2012-12-30 08:14  
Lev написано:


а хіба автор не один?
до речі, можна сподіватися на скани буклету?


під назвою кожної з 14 пісень написано "Музика та слова - Юлія Лорд"
сканів точно не буде. принаймні, найближчим часом - нема сканера.

Ваш часовий пояс: GMT + 2 Години

Нова тема   Відповісти