Завантажити та скачати торренти українською


Дом Грибоедова - Лимб (2012) [FLAC] | Art Rock / Britpop

Нові коментарі

Нова тема   Відповісти
Останній раз роздавалося maxnet (2016-03-11)
Автор Повідомлення
muhomor 
VIP


З нами з: 04.12.11
Востаннє: 29.11.16
Повідомлень: 297

2012-12-26 07:57  
Дом Грибоедова - Лимб (2012) [FLAC] | Art Rock / Britpop

Дом Грибоедова - Лимб (2012) [FLAC] | Art Rock / Britpop


Стиль: Art Rock / Britpop
Країна, місто: Україна, Дніпропетровськ
Сайти: Офіційний сайт
Видавець: гурт видав платівку самотужки
Виконавці:
Микола Дзяк - вокал та перкусія
Андрій Наконечний - гітара
Ігор Васильев - бас-гітара
Костя Єретик - барабаны
Пісні:
    01. Всё Получится
    02. Яма
    03. Плыть
    04. Цепь
    05. Что Ты Скажешь
    06. МЖ
    07. На Знакомой Улице
    08. Успели
    09. Рисуй
    10. Половина
    11. Козлодоев (Re-Аквариум)
    Audiochecker

    AUDIOCHECKER v2.0 beta (build 457) - by Dester - [email protected]
    ~~~~~~~~~~~~~~~~~~~~~~~~~~~~~~~~~~

    Started at: среда, 26. 12. 2012. - 7:50.27
    11 files found

    01 -===- D:\hurtom.com\Дом Грибоедова - «Лимб» (2012) (FLAC)\01 Дом Грибоедова Всё Получится.flac
    Extracted successfully
    Conclusion: this track is CDDA with probability 100%
    Tempfile successfully deleted.

    02 -===- D:\hurtom.com\Дом Грибоедова - «Лимб» (2012) (FLAC)\02 Дом Грибоедова Яма.flac
    Extracted successfully
    Conclusion: this track is MPEG with probability 95%
    Tempfile successfully deleted.

    03 -===- D:\hurtom.com\Дом Грибоедова - «Лимб» (2012) (FLAC)\03 Дом Грибоедова Плыть.flac
    Extracted successfully
    Conclusion: this track is CDDA with probability 100%
    Tempfile successfully deleted.

    04 -===- D:\hurtom.com\Дом Грибоедова - «Лимб» (2012) (FLAC)\04 Дом Грибоедова Цепь.flac
    Extracted successfully
    Conclusion: this track is CDDA with probability 43%
    Tempfile successfully deleted.

    05 -===- D:\hurtom.com\Дом Грибоедова - «Лимб» (2012) (FLAC)\05 Дом Грибоедова Что Ты Скажешь.flac
    Extracted successfully
    Conclusion: this track is CDDA with probability 100%
    Tempfile successfully deleted.

    06 -===- D:\hurtom.com\Дом Грибоедова - «Лимб» (2012) (FLAC)\06 Дом Грибоедова МЖ.flac
    Extracted successfully
    Conclusion: this track is MPEG with probability 73%
    Tempfile successfully deleted.

    07 -===- D:\hurtom.com\Дом Грибоедова - «Лимб» (2012) (FLAC)\07 Дом Грибоедова На Знакомой Улице.flac
    Extracted successfully
    Conclusion: this track is MPEG with probability 95%
    Tempfile successfully deleted.

    08 -===- D:\hurtom.com\Дом Грибоедова - «Лимб» (2012) (FLAC)\08 Дом Грибоедова Успели.flac
    Extracted successfully
    Conclusion: this track is CDDA with probability 100%
    Tempfile successfully deleted.

    09 -===- D:\hurtom.com\Дом Грибоедова - «Лимб» (2012) (FLAC)\09 Дом Грибоедова Рисуй.flac
    Extracted successfully
    Conclusion: this track is CDDA with probability 87%
    Tempfile successfully deleted.

    10 -===- D:\hurtom.com\Дом Грибоедова - «Лимб» (2012) (FLAC)\10 Дом Грибоедова Половина.flac
    Extracted successfully
    Conclusion: this track is CDDA with probability 100%
    Tempfile successfully deleted.

    11 -===- D:\hurtom.com\Дом Грибоедова - «Лимб» (2012) (FLAC)\11 Дом Грибоедова Козлодоев (Re-Аквариум).flac
    Extracted successfully
    Conclusion: this track is CDDA with probability 100%
    Tempfile successfully deleted.

    Finished at: среда, 26. 12. 2012. - 7:55.08 (operation time: 0:04.41)
    Log

    Exact Audio Copy V1.0 beta 3 from 29. August 2011

    Отчёт EAC об извлечении, выполненном 12. декабря 2012, 8:01

    Дом Грибоедова / «Лимб»

    Дисковод: ASUS DRW-2014S1T Adapter: 2 ID: 8

    Режим чтения : Достоверность
    Использование точного потока : Да
    Отключение кэша аудио : Да
    Использование указателей C2 : Нет

    Коррекция смещения при чтении : 6
    Способность читать области Lead-in и Lead-out : Нет
    Заполнение пропущенных сэмплов тишиной : Да
    Удаление блоков с тишиной в начале и конце : Нет
    При вычислениях CRC использовались нулевые сэмплы : Да
    Интерфейс : Встроенный Win32-интерфейс для Win NT/2000
    Обработка зазоров : Добавлено к предыдущему треку

    Выходной формат : Пользовательский кодировщик
    Выбранный битрейт : 128 kBit/s
    Качество : Высокий
    Добавление ID3-тега : Нет
    Утилита сжатия : C:\Program Files\Exact Audio Copy\Flac\flac.exe
    Дополнительные параметры : -V -8 -T "Genre=%genre%" -T "Artist=%artist%" -T "Title=%title%" -T "Album=%albumtitle%" -T "Date=%year%" -T "Tracknumber=%tracknr%" -T "Comment=%comment%" %source%

    TOC извлечённого CD

    Трек | Старт | Длительность | Начальный сектор | Конечный сектор
    ---------------------------------------------------------------------
    1 | 0:00.00 | 3:23.64 | 0 | 15288
    2 | 3:23.64 | 4:55.70 | 15289 | 37483
    3 | 8:19.59 | 4:58.45 | 37484 | 59878
    4 | 13:18.29 | 3:54.61 | 59879 | 77489
    5 | 17:13.15 | 3:38.51 | 77490 | 93890
    6 | 20:51.66 | 5:30.58 | 93891 | 118698
    7 | 26:22.49 | 7:20.38 | 118699 | 151736
    8 | 33:43.12 | 3:05.59 | 151737 | 165670
    9 | 36:48.71 | 2:53.03 | 165671 | 178648
    10 | 39:41.74 | 3:46.14 | 178649 | 195612
    11 | 43:28.13 | 4:05.56 | 195613 | 214043

    Трек 1

    Имя файла D:\Documents and Settings\user\Рабочий стол\«»—0–\01 Дом Грибоедова Всё Получится.wav

    Длина предзазора 0:00:02.00

    Пиковый уровень 100.0 %
    Скорость извлечения 4.2 X
    Качество трека 99.9 %
    CRC теста A375F3D2
    CRC копии A375F3D2
    Копирование... OK

    Трек 2

    Имя файла D:\Documents and Settings\user\Рабочий стол\«»—0–\02 Дом Грибоедова Яма.wav

    Длина предзазора 0:00:02.00

    Пиковый уровень 91.1 %
    Скорость извлечения 5.6 X
    Качество трека 100.0 %
    CRC теста 0D2297C2
    CRC копии 0D2297C2
    Копирование... OK

    Трек 3

    Имя файла D:\Documents and Settings\user\Рабочий стол\«»—0–\03 Дом Грибоедова Плыть.wav

    Длина предзазора 0:00:02.00

    Пиковый уровень 100.0 %
    Скорость извлечения 6.3 X
    Качество трека 100.0 %
    CRC теста 675AE68D
    CRC копии 675AE68D
    Копирование... OK

    Трек 4

    Имя файла D:\Documents and Settings\user\Рабочий стол\«»—0–\04 Дом Грибоедова Цепь.wav

    Длина предзазора 0:00:02.00

    Пиковый уровень 97.7 %
    Скорость извлечения 6.6 X
    Качество трека 100.0 %
    CRC теста 6014B45E
    CRC копии 6014B45E
    Копирование... OK

    Трек 5

    Имя файла D:\Documents and Settings\user\Рабочий стол\«»—0–\05 Дом Грибоедова Что Ты Скажешь.wav

    Длина предзазора 0:00:02.00

    Пиковый уровень 98.8 %
    Скорость извлечения 7.0 X
    Качество трека 100.0 %
    CRC теста 1FF58893
    CRC копии 1FF58893
    Копирование... OK

    Трек 6

    Имя файла D:\Documents and Settings\user\Рабочий стол\«»—0–\06 Дом Грибоедова МЖ.wav

    Длина предзазора 0:00:02.00

    Пиковый уровень 95.1 %
    Скорость извлечения 7.8 X
    Качество трека 100.0 %
    CRC теста DDB3645D
    CRC копии DDB3645D
    Копирование... OK

    Трек 7

    Имя файла D:\Documents and Settings\user\Рабочий стол\«»—0–\07 Дом Грибоедова На Знакомой Улице.wav

    Длина предзазора 0:00:02.00

    Пиковый уровень 100.0 %
    Скорость извлечения 8.6 X
    Качество трека 100.0 %
    CRC теста D12F96A6
    CRC копии D12F96A6
    Копирование... OK

    Трек 8

    Имя файла D:\Documents and Settings\user\Рабочий стол\«»—0–\08 Дом Грибоедова Успели.wav

    Длина предзазора 0:00:02.00

    Пиковый уровень 98.8 %
    Скорость извлечения 8.0 X
    Качество трека 100.0 %
    CRC теста F97221ED
    CRC копии F97221ED
    Копирование... OK

    Трек 9

    Имя файла D:\Documents and Settings\user\Рабочий стол\«»—0–\09 Дом Грибоедова Рисуй.wav

    Длина предзазора 0:00:02.00

    Пиковый уровень 96.4 %
    Скорость извлечения 8.2 X
    Качество трека 100.0 %
    CRC теста BC9BB89B
    CRC копии BC9BB89B
    Копирование... OK

    Трек 10

    Имя файла D:\Documents and Settings\user\Рабочий стол\«»—0–\10 Дом Грибоедова Половина.wav

    Длина предзазора 0:00:02.00

    Пиковый уровень 98.8 %
    Скорость извлечения 8.7 X
    Качество трека 100.0 %
    CRC теста C2F6098A
    CRC копии C2F6098A
    Копирование... OK

    Трек 11

    Имя файла D:\Documents and Settings\user\Рабочий стол\«»—0–\11 Дом Грибоедова Козлодоев (Re-Аквариум).wav

    Длина предзазора 0:00:02.00

    Пиковый уровень 98.8 %
    Скорость извлечения 9.2 X
    Качество трека 100.0 %
    CRC теста 8CB5EA9C
    CRC копии 8CB5EA9C
    Копирование... OK

    Ошибок не произошло

    Конец отчёта

    ==== Контрольная сумма отчёта 3C7296E74E75AD614EE0B50F10ABB09740069FDAC7D1EE7E29D76D711572B41E ====

Тривалість: 00:47:28
Мова: російська
Аудіо-кодек: FLAC
Бітрейт: 896 кб/с
Джерело: ріп із власного CD
Додаткова інформація:
Один з найкращих цьогорічних альбомів, які доводилося мені слухати. У творчості хлопців дуже відчутний вплив рок-музики британського розливу середини 90-х. За експресією, мелодійністю і небанальними музичними ходами дуже нагадують англійців Suede їхньої ранньої версії. Особливо це помітно на живих виступах команди. Усім, хто вважає себе меломаном, качати обов'язково.


Якщо Ви справді бажаєте підтримати українське - після прослуховування, якщо музика вам сподобалась, придбайте ліцензійний диск. Підтримаймо вітчизняних виконавців!


Срібний реліз (на рейтинг впливає 50% завантаженого)
 Трекер:    Зареєстрований   

Завантажити / скачати українську музику



відео для новачків



 Зареєстрований:   2012-12-26 07:57
 Розмір:   305 MB 
 Оцінка музики:   4/10 (Голосів: 6)
   
Leshchyshyn 
VIP


З нами з: 20.07.09
Востаннє: 02.12.16
Повідомлень: 470

2013-01-15 23:47  
Якщо чесно, то цей альбом моє перше знайомство з творчістю Дом'у Грибоедова і мені дуже сподобалось...чимсь нагадало гурт Sakura (російський мабуть але все ж).
П.С. Кавер на Акваріум получився крутий!!

Ваш часовий пояс: GMT + 2 Години

Нова тема   Відповісти