Завантажити та скачати торренти українською


Мій пес Скіп / My Dog Skip (2000) 720p Ukr/Eng | Sub Eng

Нові коментарі

Нова тема   Відповісти
Автор Повідомлення
ratbol 
Модератор HD


З нами з: 03.02.09
Востаннє: 01.12.16
Повідомлень: 1088

2012-12-19 18:07  
Мій пес Скіп / My Dog Skip (2000) 720p Ukr/Eng | Sub Eng

Мій пес Скіп / My Dog Skip (2000) 720p Ukr/Eng | Sub Eng


Жанр: драма, сімейний, спорт
Країна: США



Кіностудія / кінокомпанія: Alcon Entertainment, MDS Productions LLC
Режисер: Джей Рассел
Актори: Френкі Муніс, Даян Лейн, Люк Вілсон, Кевін Бейкон, Бредлі Корріел, Дейлен Гонейкатт, Коді Лінлі та інші
Рейтинг MPAA: рекомендується присутність батьків



Сюжет:
1942 рік, невелике містечко в штаті Міссісіпі. Маленький сором'язливий хлопчик Вілл, росте замкнутим — у нього немає друзів. Його кумир і єдиний друг — місцева зірка бейсболу і загальний улюбленець Дінк Дженкінс, на якого він хоче бути у всьому схожим. Після відходу Дінка на війну, Вілл залишається зовсім один, і батьки дарують йому на день народження щеня Скіпа. Поява собаки кардинально змінює життя Вілла — у нього з'являються друзі, улюблена дівчинка і повага з боку батьків та оточуючих. Випадкова сварка зі Скіпом показує йому ціну справжньої дружби, Вілл поступово мужніє...


Тривалість: 01:35:32
Якість: 720p
Відео:
кодек:
розмір кадру: 1280 х 720
бітрейт: 5522 кб/с

Аудіо # 1:
мова: українська
переклад: багатоголосий закадровий | К1
кодек: 2.0
бітрейт: 192 кб/с

Аудіо # 2:
мова: англійська
переклад: оригінал
кодек: 5.1
бітрейт: 640 кб/с

Субтитри:
мова: англійська
тип: програмні (м'які)
формат: *.srt

Оригінальні розділи:
Збережено та підписано

MediaInfo
Код:
General
Unique ID                                : 182835821711224412893658935348921864406 (0x898CE5FD26AEC438BF0B7DA913C390D6)
Complete name                            : E:\DOCUMENTS\RELEASES\My Dog Skip (2000)\VID 720\My Dog Skip (2000) [Ukr, Eng. Sub Eng] 720p [Hurtom].mkv
Format                                   : Matroska
Format version                           : Version 2
File size                                : 4.24 GiB
Duration                                 : 1h 35mn
Overall bit rate                         : 6 350 Kbps
Movie name                               : Мій пес Скіп / My Dog Skip (2000) [Hurtom]
Encoded date                             : UTC 2012-12-19 09:28:16
Writing application                      : mkvmerge v5.8.0 ('No Sleep / Pillow') built on Sep  2 2012 15:37:04
Writing library                          : libebml v1.2.3 + libmatroska v1.3.0

Video
ID                                       : 1
Format                                   : AVC
Format/Info                              : Advanced Video Codec
Format profile                           : [email protected]
Format settings, CABAC                   : Yes
Format settings, ReFrames                : 9 frames
Codec ID                                 : V_MPEG4/ISO/AVC
Duration                                 : 1h 35mn
Bit rate                                 : 5 522 Kbps
Width                                    : 1 280 pixels
Height                                   : 720 pixels
Display aspect ratio                     : 16:9
Frame rate mode                          : Constant
Frame rate                               : 23.976 fps
Color space                              : YUV
Chroma subsampling                       : 4:2:0
Bit depth                                : 8 bits
Scan type                                : Progressive
Bits/(Pixel*Frame)                       : 0.250
Stream size                              : 3.60 GiB (85%)
Writing library                          : core 112 r1867 22bfd31
Encoding settings                        : cabac=1 / ref=9 / deblock=1:-3:-3 / analyse=0x3:0x133 / me=umh / subme=9 / psy=1 / psy_rd=1.15:0.15 / mixed_ref=1 / me_range=32 / chroma_me=1 / trellis=2 / 8x8dct=1 / cqm=0 / deadzone=21,11 / fast_pskip=0 / chroma_qp_offset=-3 / threads=6 / sliced_threads=0 / nr=0 / decimate=0 / interlaced=0 / constrained_intra=0 / bframes=7 / b_pyramid=2 / b_adapt=2 / b_bias=0 / direct=3 / weightb=1 / open_gop=0 / weightp=2 / keyint=250 / keyint_min=23 / scenecut=40 / intra_refresh=0 / rc_lookahead=60 / rc=2pass / mbtree=1 / bitrate=5522 / ratetol=1.0 / qcomp=0.75 / qpmin=0 / qpmax=51 / qpstep=4 / cplxblur=20.0 / qblur=0.5 / vbv_maxrate=50000 / vbv_bufsize=62500 / nal_hrd=none / ip_ratio=1.40 / aq=1:0.80
Language                                 : English
Default                                  : Yes
Forced                                   : No

Audio #1
ID                                       : 2
Format                                   : AC-3
Format/Info                              : Audio Coding 3
Mode extension                           : CM (complete main)
Format settings, Endianness              : Big
Codec ID                                 : A_AC3
Duration                                 : 1h 35mn
Bit rate mode                            : Constant
Bit rate                                 : 192 Kbps
Channel(s)                               : 2 channels
Channel positions                        : Front: L R
Sampling rate                            : 48.0 KHz
Bit depth                                : 16 bits
Compression mode                         : Lossy
Stream size                              : 131 MiB (3%)
Title                                    : 2.0 [192 Kbps] — багатоголосий закадровий | К1
Language                                 : Ukrainian
Default                                  : Yes
Forced                                   : No

Audio #2
ID                                       : 3
Format                                   : AC-3
Format/Info                              : Audio Coding 3
Mode extension                           : CM (complete main)
Format settings, Endianness              : Big
Codec ID                                 : A_AC3
Duration                                 : 1h 35mn
Bit rate mode                            : Constant
Bit rate                                 : 640 Kbps
Channel(s)                               : 6 channels
Channel positions                        : Front: L C R, Side: L R, LFE
Sampling rate                            : 48.0 KHz
Bit depth                                : 16 bits
Compression mode                         : Lossy
Stream size                              : 437 MiB (10%)
Title                                    : 5.1 [640 Kbps] — оригінал
Language                                 : English
Default                                  : No
Forced                                   : No

Text
ID                                       : 4
Format                                   : UTF-8
Codec ID                                 : S_TEXT/UTF8
Codec ID/Info                            : UTF-8 Plain Text
Language                                 : English
Default                                  : No
Forced                                   : No

Menu
00:00:00.000                             : en:Mementos
00:03:07.854                             : en:Yazoo, Summer 1942
00:05:53.728                             : en:Birthday Plans
00:08:08.405                             : en:Goodbye, Dink
00:11:24.517                             : en:Almost a Present
00:15:39.021                             : en:Not Asking
00:19:08.147                             : en:An Exceptional Dog
00:20:45.870                             : en:Driver's Seat; A Favor
00:24:02.358                             : en:Boy-and-Dog's Life
00:28:04.433                             : en:Show and Tell
00:30:45.385                             : en:Touchdown
00:33:27.214                             : en:Graveyard Test
00:38:41.528                             : en:Moonshiners
00:42:55.948                             : en:Huck and Caddie
00:45:17.757                             : en:Skip's Rounds
00:47:47.698                             : en:Reporting for Duty
00:53:03.847                             : en:Coming Home
00:56:14.746                             : en:"Was the War...?"
01:01:05.370                             : en:Dink's Invited
01:03:58.918                             : en:Skip Plays the Field
01:09:51.604                             : en:Missing
01:14:30.007                             : en:Friend in Need
01:18:31.665                             : en:Found
01:21:07.529                             : en:Still Teaching Me
01:25:17.779                             : en:Best Things of All
01:28:37.729                             : en:In My Heart
01:31:28.483                             : en:End Credits






Цитата:
ratbol — запис з ТБ та синхронізація української доріжки



Велике прохання підтримати роздачу, тому що я не зможу підтримувати її на постійній основі.


Джерело:


Срібний реліз (на рейтинг впливає 50% завантаженого)
 Трекер:    Зареєстрований   

Завантажити / скачати фільм українською



відео для новачків



 Зареєстрований:   2012-12-19 18:07
 Розмір:   4.24 GB 
 Оцінка фільму:   10/10 (Голосів: 5)
 ЗАЛИШАЙТЕСЯ НА РОЗДАЧІ ЯКОМОГА ДОВШЕ!
   
Інші релізи
   Мій пес Скіп / My Dog Skip (2000) Ukr/Eng | Sub Eng ratbol  0 / 3   1.75 GB   2012-12-19 18:06 
   Мій пес Скіп / My Dog Skip (2000) 1080p Ukr/Eng | Sub Eng ratbol  2 / 0   6.94 GB   2012-12-19 18:05 
BMK12 
Відео Гуртом - підтримка та поширення
Відео Гуртом - підтримка та поширення


З нами з: 13.04.09
Востаннє: 04.12.16
Повідомлень: 2982

2014-09-27 18:17  
Роздайте, будь ласка.
ratbol 
Модератор HD


З нами з: 03.02.09
Востаннє: 01.12.16
Повідомлень: 1088

2014-09-27 21:53  
Став на роздачу
Ваш часовий пояс: GMT + 2 Години

Нова тема   Відповісти