Завантажити та скачати торренти українською


Перкалаба - Дідо (2011) [FLAC] | Ska / Folk / Reggae

Нові коментарі

Нова тема   Відповісти
Автор Повідомлення
muhomor 
VIP


З нами з: 04.12.11
Востаннє: 29.11.16
Повідомлень: 297

2012-12-16 23:33  
Перкалаба - Дідо (2011) [FLAC] | Ska / Folk / Reggae

Перкалаба - Дідо (2011) [FLAC] | Ska / Folk / Reggae


Стиль: Ska / Folk / Reggae
Країна, місто: Україна, Івано-Франківськ
Сайти: Офіційний сайт
Видавець: Familia Perkalaba
Виконавці:
Андрій "Федот" Федотов - вокал
Big Master Шотурма – цимбали, вокал
Володимир "Вовєнджя" Шотурма - цимбали, бек-вокали
Серьога Шваюк - труба, акордеон, бек-вокали
Лев "Скрипа" скренткович - барабани
Вітьок Jr. Новожилов – гітара, програмування
Алєксандр Сєргєєвіч Грідін – бас, губна гармоніка
Дядя Вітя Степанюк - тромбон
Руслана Хазіпова - вокал, джeмбе, танці
Мох – менеджмент, вокал
а також Петро Петрович Сказків – дод. цимбали (11)
Пісні:
    01. Було Не Любити (in memoriam Кузя)
    02. Дідобородатий (feat. Eugene Hutz)
    03. Дідовліс
    04. Дідограє
    05. Дідо4
    06. Ау
    07. Рай (feat. HOM)
    08. Галочки (feat. ДахаБраха)
    09. Любовь Инженера
    10. Тікобиви
    11. Sun Is Rising (feat. Yuriy Gurzhy)
    12. Tikobyvyhotily (Derbastler tropical remix)
    Audiochecker

    AUDIOCHECKER v2.0 beta (build 457) - by Dester - [email protected]
    ~~~~~~~~~~~~~~~~~~~~~~~~~~~~~~~~~~

    Started at: воскресенье, 16. 12. 2012. - 23:18.06
    12 files found

    01 -===- D:\hurtom.com\Перкалаба - «Дідо» (2011) (FLAC)\01 Перкалаба Було Не Любити (in memoriam Кузя).flac
    Extracted successfully
    Conclusion: this track is CDDA with probability 99%
    Tempfile successfully deleted.

    02 -===- D:\hurtom.com\Перкалаба - «Дідо» (2011) (FLAC)\02 Перкалаба Дідобородатий (feat. Eugene Hutz).flac
    Extracted successfully
    Conclusion: this track is CDDA with probability 99%
    Tempfile successfully deleted.

    03 -===- D:\hurtom.com\Перкалаба - «Дідо» (2011) (FLAC)\03 Перкалаба Дідовліс.flac
    Extracted successfully
    Conclusion: this track is CDDA with probability 100%
    Tempfile successfully deleted.

    04 -===- D:\hurtom.com\Перкалаба - «Дідо» (2011) (FLAC)\04 Перкалаба Дідограє.flac
    Extracted successfully
    Conclusion: this track is CDDA with probability 100%
    Tempfile successfully deleted.

    05 -===- D:\hurtom.com\Перкалаба - «Дідо» (2011) (FLAC)\05 Перкалаба Дідо4.flac
    Extracted successfully
    Conclusion: this track is CDDA with probability 100%
    Tempfile successfully deleted.

    06 -===- D:\hurtom.com\Перкалаба - «Дідо» (2011) (FLAC)\06 Перкалаба Ау.flac
    Extracted successfully
    Conclusion: this track is CDDA with probability 100%
    Tempfile successfully deleted.

    07 -===- D:\hurtom.com\Перкалаба - «Дідо» (2011) (FLAC)\07 Перкалаба Рай (feat. HOM).flac
    Extracted successfully
    Conclusion: this track is CDDA with probability 100%
    Tempfile successfully deleted.

    08 -===- D:\hurtom.com\Перкалаба - «Дідо» (2011) (FLAC)\08 Перкалаба Галочки (feat. ДахаБраха).flac
    Extracted successfully
    Conclusion: this track is CDDA with probability 100%
    Tempfile successfully deleted.

    09 -===- D:\hurtom.com\Перкалаба - «Дідо» (2011) (FLAC)\09 Перкалаба Любовь Инженера.flac
    Extracted successfully
    Conclusion: this track is CDDA with probability 100%
    Tempfile successfully deleted.

    10 -===- D:\hurtom.com\Перкалаба - «Дідо» (2011) (FLAC)\10 Перкалаба Тікобиви.flac
    Extracted successfully
    Conclusion: this track is CDDA with probability 100%
    Tempfile successfully deleted.

    11 -===- D:\hurtom.com\Перкалаба - «Дідо» (2011) (FLAC)\11 Перкалаба Sun Is Rising (feat. Yuriy Gurzhy).flac
    Extracted successfully
    Conclusion: this track is CDDA with probability 100%
    Tempfile successfully deleted.

    12 -===- D:\hurtom.com\Перкалаба - «Дідо» (2011) (FLAC)\12 Перкалаба Tikobyvyhotily (Derbastler tropical remix).flac
    Extracted successfully
    Conclusion: this track is CDDA with probability 100%
    Tempfile successfully deleted.

    Finished at: воскресенье, 16. 12. 2012. - 23:24.41 (operation time: 0:06.35)
    Log


    Exact Audio Copy V1.0 beta 3 from 29. August 2011

    Отчёт EAC об извлечении, выполненном 16. декабря 2012, 23:11

    Перкалаба / «Дідо»

    Дисковод: ASUS DRW-2014S1T Adapter: 2 ID: 8

    Режим чтения : Достоверность
    Использование точного потока : Да
    Отключение кэша аудио : Да
    Использование указателей C2 : Нет

    Коррекция смещения при чтении : 6
    Способность читать области Lead-in и Lead-out : Нет
    Заполнение пропущенных сэмплов тишиной : Да
    Удаление блоков с тишиной в начале и конце : Нет
    При вычислениях CRC использовались нулевые сэмплы : Да
    Интерфейс : Встроенный Win32-интерфейс для Win NT/2000
    Обработка зазоров : Добавлено к предыдущему треку

    Выходной формат : Пользовательский кодировщик
    Выбранный битрейт : 128 kBit/s
    Качество : Высокий
    Добавление ID3-тега : Нет
    Утилита сжатия : C:\Program Files\Exact Audio Copy\Flac\flac.exe
    Дополнительные параметры : -V -8 -T "Genre=%genre%" -T "Artist=%artist%" -T "Title=%title%" -T "Album=%albumtitle%" -T "Date=%year%" -T "Tracknumber=%tracknr%" -T "Comment=%comment%" %source%

    TOC извлечённого CD

    Трек | Старт | Длительность | Начальный сектор | Конечный сектор
    ---------------------------------------------------------------------
    1 | 0:00.00 | 4:04.60 | 0 | 18359
    2 | 4:04.60 | 2:17.67 | 18360 | 28701
    3 | 6:22.52 | 5:06.62 | 28702 | 51713
    4 | 11:29.39 | 4:35.33 | 51714 | 72371
    5 | 16:04.72 | 4:09.59 | 72372 | 91105
    6 | 20:14.56 | 4:27.58 | 91106 | 111188
    7 | 24:42.39 | 4:09.41 | 111189 | 129904
    8 | 28:52.05 | 5:41.65 | 129905 | 155544
    9 | 34:33.70 | 6:03.17 | 155545 | 182786
    10 | 40:37.12 | 4:03.17 | 182787 | 201028
    11 | 44:40.29 | 6:18.19 | 201029 | 229397
    12 | 50:58.48 | 4:18.14 | 229398 | 248761

    Трек 1

    Имя файла D:\Documents and Settings\user\Рабочий стол\«»—0–\01 Перкалаба Було Не Любити (in memoriam Кузя).wav

    Длина предзазора 0:00:02.00

    Пиковый уровень 97.7 %
    Скорость извлечения 5.1 X
    Качество трека 100.0 %
    CRC теста A81607BC
    CRC копии A81607BC
    Копирование... OK

    Трек 2

    Имя файла D:\Documents and Settings\user\Рабочий стол\«»—0–\02 Перкалаба Дідобородатий (feat. Eugene Hutz).wav

    Пиковый уровень 97.7 %
    Скорость извлечения 5.0 X
    Качество трека 100.0 %
    CRC теста 7F7A082C
    CRC копии 7F7A082C
    Копирование... OK

    Трек 3

    Имя файла D:\Documents and Settings\user\Рабочий стол\«»—0–\03 Перкалаба Дідовліс.wav

    Пиковый уровень 97.7 %
    Скорость извлечения 6.2 X
    Качество трека 100.0 %
    CRC теста 2B6D8ED7
    CRC копии 2B6D8ED7
    Копирование... OK

    Трек 4

    Имя файла D:\Documents and Settings\user\Рабочий стол\«»—0–\04 Перкалаба Дідограє.wav

    Пиковый уровень 97.7 %
    Скорость извлечения 6.6 X
    Качество трека 100.0 %
    CRC теста 5710D9ED
    CRC копии 5710D9ED
    Копирование... OK

    Трек 5

    Имя файла D:\Documents and Settings\user\Рабочий стол\«»—0–\05 Перкалаба Дідо4.wav

    Пиковый уровень 97.7 %
    Скорость извлечения 7.1 X
    Качество трека 100.0 %
    CRC теста 00BFDBB6
    CRC копии 00BFDBB6
    Копирование... OK

    Трек 6

    Имя файла D:\Documents and Settings\user\Рабочий стол\«»—0–\06 Перкалаба Ау.wav

    Пиковый уровень 97.7 %
    Скорость извлечения 7.5 X
    Качество трека 100.0 %
    CRC теста 5867886D
    CRC копии 5867886D
    Копирование... OK

    Трек 7

    Имя файла D:\Documents and Settings\user\Рабочий стол\«»—0–\07 Перкалаба Рай (feat. HOM).wav

    Пиковый уровень 97.7 %
    Скорость извлечения 7.4 X
    Качество трека 100.0 %
    CRC теста CEF68347
    CRC копии CEF68347
    Копирование... OK

    Трек 8

    Имя файла D:\Documents and Settings\user\Рабочий стол\«»—0–\08 Перкалаба Галочки (feat. ДахаБраха).wav

    Пиковый уровень 97.7 %
    Скорость извлечения 8.2 X
    Качество трека 100.0 %
    CRC теста 6576DB80
    CRC копии 6576DB80
    Копирование... OK

    Трек 9

    Имя файла D:\Documents and Settings\user\Рабочий стол\«»—0–\09 Перкалаба Любовь Инженера.wav

    Пиковый уровень 97.7 %
    Скорость извлечения 8.3 X
    Качество трека 99.9 %
    CRC теста 3D6192D6
    CRC копии 3D6192D6
    Копирование... OK

    Трек 10

    Имя файла D:\Documents and Settings\user\Рабочий стол\«»—0–\10 Перкалаба Тікобиви.wav

    Пиковый уровень 97.7 %
    Скорость извлечения 8.9 X
    Качество трека 100.0 %
    CRC теста B281743B
    CRC копии B281743B
    Копирование... OK

    Трек 11

    Имя файла D:\Documents and Settings\user\Рабочий стол\«»—0–\11 Перкалаба Sun Is Rising (feat. Yuriy Gurzhy).wav

    Пиковый уровень 97.7 %
    Скорость извлечения 9.5 X
    Качество трека 100.0 %
    CRC теста DA5E5403
    CRC копии DA5E5403
    Копирование... OK

    Трек 12

    Имя файла D:\Documents and Settings\user\Рабочий стол\«»—0–\12 Перкалаба Tikobyvyhotily (Derbastler tropical remix).wav

    Пиковый уровень 97.7 %
    Скорость извлечения 8.9 X
    Качество трека 100.0 %
    CRC теста 3FF49F1B
    CRC копии 3FF49F1B
    Копирование... OK

    Ошибок не произошло

    Конец отчёта

    ==== Контрольная сумма отчёта F027D0FD069F914904F34CBAA646C8C7BE14B8C1D297020F4D818CE7BD7A25BB ====

Тривалість: 00:55:10
Мова: українська (1-8,10,11), російська (9), англійська (11)
Аудіо-кодек: FLAC
Бітрейт: 996 кб/с
Джерело: ріп із власного CD
Додаткова інформація:
Новий «Дідо» ПЕРКАЛАБИ − це свято карпатського дао, грибів і форелі, щастя-радості дідівської музики глибокої гуцульщини та далеких закутків душі. Ненавмисність, еклектика, анархізм. Головне – стан просвітлення, сонце і чисте повітря, цимбально-духовий космос, проникливий народний спів у ска-філософських прикрасах. А також: зустрічі і прощання, сучасність і минуле, любов і зрада, чаклунство, танці, просто музика гір, вже вкритих снігом, чабанів і мольфарів, що живуть на їх вершинах. Тільки ПЕРКАЛАБА може так геніально творити дурниці, так насичено проживати життя, так драматично доносити тексти, не обтяжені смисловою функцією. Легкість, гумор, безтурботність, простота, поєднання всього, що можна поєднати, весело й органічно – їх феномен і перша родзинка нового альбому.

Друга особливість «Дідо» у багатстві на дуети. Центральний із них – шедевральна пісня «Дідобородатий» від ПЕРКАЛАБИ та лідера Gogol Bordello Євгена Гудзя. А також дуети з: ДахаБраха, НОМ, Іван Москаленко-Derbastler та Юрій Гуржи (Rotfront).


Якщо Ви справді бажаєте підтримати українське - після прослуховування, якщо музика вам сподобалась, придбайте ліцензійний диск. Підтримаймо вітчизняних виконавців!


Срібний реліз (на рейтинг впливає 50% завантаженого)
 Трекер:    Зареєстрований   

Завантажити / скачати українську музику



відео для новачків



 Зареєстрований:   2012-12-16 23:33
 Розмір:   394 MB 
 Оцінка музики:   9.8/10 (Голосів: 8)
   
Sowu 
Частий відвідувач


З нами з: 19.05.09
Востаннє: 02.09.13
Повідомлень: 26

2013-01-02 12:21  
Цікаво, але я не почув тут ані Ska, ані Reggae! Стиль групи можна назвати як "гуп цю-цю", а жанр "музика для танців на весіллях".
gosha.samovar 
VIP


З нами з: 08.09.10
Востаннє: 06.12.16
Повідомлень: 400

2013-10-30 13:37  
Вже який раз намагаюсь слухати - і нє. Не моя музика. Цікаво, що в ній люди знаходять?!
fv007 
VIP


З нами з: 01.01.10
Востаннє: 07.12.16
Повідомлень: 449

2013-10-30 19:28  
gosha.samovar написано:
Вже який раз намагаюсь слухати - і нє. Не моя музика. Цікаво, що в ній люди знаходять?!


Happy інерція...

слухав Перкалубу з того часу коли в них ще не було жодного виданого альбому,
було фист!!! Слухалось і слухалось...
Але така реальність - тривалість життя кожного музичного колективу має свій час.
Теоретики музики називають точну цифру.
Після цього відрізку часу гурт або припиняє своє існування або стає "ходячим мерцем".

gosha.samovar 
VIP


З нами з: 08.09.10
Востаннє: 06.12.16
Повідомлень: 400

2013-10-30 19:44  
Тобто, треба послухати ранні альбоми, я правильно зрозумів?
fv007 
VIP


З нами з: 01.01.10
Востаннє: 07.12.16
Повідомлень: 449

2013-10-30 21:40  
Так Happy
В мережі є збірка їх ранніх записів з концертів - Музика "ГР" (2002)
То саме те!!!

Ваш часовий пояс: GMT + 2 Години

Нова тема   Відповісти